<?xml version="1.0" standalone="no"?>
<!DOCTYPE svg PUBLIC "-//W3C//DTD SVG 1.1//EN" "http://www.w3.org/Graphics/SVG/1.1/DTD/svg11.dtd" >
<svg xmlns="http://www.w3.org/2000/svg">
<metadata>
Copyright (c) 2018 by Fontsmith Ltd. All rights reserved. This font may not be altered in any way without prior permission of Fontsmith Ltd.
</metadata>
<defs>
<font id="HeinekenSerif18-Bold" horiz-adv-x="0" >
  <font-face 
    font-family="Heineken Serif 18 Bold"
    font-weight="700"
    font-stretch="normal"
    units-per-em="1000"
    panose-1="2 4 8 6 6 6 2 6 7 3"
    ascent="788"
    descent="-212"
    x-height="573"
    cap-height="788"
    bbox="-456 -360 1294 1119"
    underline-thickness="100"
    underline-position="0"
    unicode-range="U+000D-FB02"
  />
<missing-glyph horiz-adv-x="702" 
d="M70 788h562v-788h-562v788zM543 732h-383l192 -287zM317 394l-190 287v-574zM577 681l-192 -287l192 -287v574zM543 57l-191 286l-192 -286h383z" />
    <glyph glyph-name="fi" unicode="fi" horiz-adv-x="836" 
d="M28 79q10 5 31 12l15 5q19 7 25 16t6 31v309h-87v121h87v55q0 82 54 127t157 45q92 0 141.5 -36t49.5 -106v-5q0 -17 -7 -23q-10 -8 -25 -8h-125v37q0 24 -7.5 35.5t-23.5 11.5t-23.5 -11t-7.5 -38v-84h108v-121h-108v-309q0 -21 6.5 -31t24.5 -16l15 -5q21 -7 31 -12
l-3 -79h-331zM580.5 651q-30.5 29 -30.5 71q0 43 30 71t75 28q44 0 73.5 -28t29.5 -71q0 -42 -29.5 -71t-73.5 -29t-74.5 29zM495 79q10 5 31 12l15 5q19 7 25 16t6 31v287q0 24 -6.5 32.5t-25.5 14.5l-15 5q-24 8 -29 12l3 79h256v-430q0 -21 6.5 -31t24.5 -16l15 -5
q21 -7 31 -12l-3 -79h-331z" />
    <glyph glyph-name="fl" unicode="fl" horiz-adv-x="885" 
d="M28 79q10 5 31 12l15 5q19 7 25 16t6 31v309h-87v121h87v55q0 82 54 127t157 45q92 0 141.5 -36t49.5 -106v-5q0 -17 -7 -23q-10 -8 -25 -8h-125v37q0 24 -7.5 35.5t-23.5 11.5t-23.5 -11t-7.5 -38v-84h108v-121h-108v-309q0 -21 6.5 -31t24.5 -16l15 -5q21 -7 31 -12
l-3 -79h-331zM536 79q10 5 31 12l15 5q19 7 25 16t6 31v502q0 24 -6.5 32.5t-25.5 14.5l-15 5q-24 8 -29 12l3 79h256v-645q0 -21 6.5 -31t24.5 -16l15 -5q21 -7 31 -12l-3 -79h-331z" />
    <glyph glyph-name=".notdef" horiz-adv-x="702" 
d="M70 788h562v-788h-562v788zM543 732h-383l192 -287zM317 394l-190 287v-574zM577 681l-192 -287l192 -287v574zM543 57l-191 286l-192 -286h383z" />
    <glyph glyph-name=".null" 
 />
    <glyph glyph-name="nonmarkingreturn" unicode="&#xd;" horiz-adv-x="240" 
 />
    <glyph glyph-name="space" unicode=" " horiz-adv-x="240" 
 />
    <glyph glyph-name="A" unicode="A" horiz-adv-x="792" 
d="M9 83q11 6 31 13l14 5q21 8 34 21.5t23 44.5l193 621h178l200 -610q13 -38 25 -54t29 -22l17 -6q23 -8 32 -15l-6 -81h-351l-7 83q13 5 35 11l13 4q13 5 19 13t6 22q0 9 -1 14l-21 73q-3 9 -14 9h-185q-12 0 -15 -11l-10 -35q-12 -41 -12 -55q0 -11 4 -17.5t14 -10.5
l11 -4q21 -8 33 -15l-7 -81h-277zM426 341q6 0 8 4.5t0 11.5l-61 216h-14l-62 -219l-1 -4q0 -9 10 -9h120z" />
    <glyph glyph-name="Aacute" unicode="&#xc1;" horiz-adv-x="792" 
d="M9 83q11 6 31 13l14 5q21 8 34 21.5t23 44.5l193 621h178l200 -610q13 -38 25 -54t29 -22l17 -6q23 -8 32 -15l-6 -81h-351l-7 83q13 5 35 11l13 4q13 5 19 13t6 22q0 9 -1 14l-21 73q-3 9 -14 9h-185q-12 0 -15 -11l-10 -35q-12 -41 -12 -55q0 -11 4 -17.5t14 -10.5
l11 -4q21 -8 33 -15l-7 -81h-277zM426 341q6 0 8 4.5t0 11.5l-61 216h-14l-62 -219l-1 -4q0 -9 10 -9h120zM250 926l243 141l72 -137l-265 -100z" />
    <glyph glyph-name="Abreve" unicode="&#x102;" horiz-adv-x="792" 
d="M9 83q11 6 31 13l14 5q21 8 34 21.5t23 44.5l193 621h178l200 -610q13 -38 25 -54t29 -22l17 -6q23 -8 32 -15l-6 -81h-351l-7 83q13 5 35 11l13 4q13 5 19 13t6 22q0 9 -1 14l-21 73q-3 9 -14 9h-185q-12 0 -15 -11l-10 -35q-12 -41 -12 -55q0 -11 4 -17.5t14 -10.5
l11 -4q21 -8 33 -15l-7 -81h-277zM426 341q6 0 8 4.5t0 11.5l-61 216h-14l-62 -219l-1 -4q0 -9 10 -9h120zM260 897.5q-49 47.5 -54 120.5h125q7 -28 24 -42t42 -14q51 0 64 56h125q-5 -72 -54.5 -120t-135.5 -48q-87 0 -136 47.5z" />
    <glyph glyph-name="uni01CD" unicode="&#x1cd;" horiz-adv-x="792" 
d="M9 83q11 6 31 13l14 5q21 8 34 21.5t23 44.5l193 621h178l200 -610q13 -38 25 -54t29 -22l17 -6q23 -8 32 -15l-6 -81h-351l-7 83q13 5 35 11l13 4q13 5 19 13t6 22q0 9 -1 14l-21 73q-3 9 -14 9h-185q-12 0 -15 -11l-10 -35q-12 -41 -12 -55q0 -11 4 -17.5t14 -10.5
l11 -4q21 -8 33 -15l-7 -81h-277zM426 341q6 0 8 4.5t0 11.5l-61 216h-14l-62 -219l-1 -4q0 -9 10 -9h120zM197 973l66 74l133 -95l132 95l66 -73l-131 -128h-136z" />
    <glyph glyph-name="Acircumflex" unicode="&#xc2;" horiz-adv-x="792" 
d="M9 83q11 6 31 13l14 5q21 8 34 21.5t23 44.5l193 621h178l200 -610q13 -38 25 -54t29 -22l17 -6q23 -8 32 -15l-6 -81h-351l-7 83q13 5 35 11l13 4q13 5 19 13t6 22q0 9 -1 14l-21 73q-3 9 -14 9h-185q-12 0 -15 -11l-10 -35q-12 -41 -12 -55q0 -11 4 -17.5t14 -10.5
l11 -4q21 -8 33 -15l-7 -81h-277zM426 341q6 0 8 4.5t0 11.5l-61 216h-14l-62 -219l-1 -4q0 -9 10 -9h120zM197 902l131 133h136l130 -132l-66 -74l-133 100l-132 -100z" />
    <glyph glyph-name="Adieresis" unicode="&#xc4;" horiz-adv-x="792" 
d="M9 83q11 6 31 13l14 5q21 8 34 21.5t23 44.5l193 621h178l200 -610q13 -38 25 -54t29 -22l17 -6q23 -8 32 -15l-6 -81h-351l-7 83q13 5 35 11l13 4q13 5 19 13t6 22q0 9 -1 14l-21 73q-3 9 -14 9h-185q-12 0 -15 -11l-10 -35q-12 -41 -12 -55q0 -11 4 -17.5t14 -10.5
l11 -4q21 -8 33 -15l-7 -81h-277zM426 341q6 0 8 4.5t0 11.5l-61 216h-14l-62 -219l-1 -4q0 -9 10 -9h120zM221.5 871.5q-25.5 23.5 -25.5 59.5t25.5 59.5t62.5 23.5t62 -23.5t25 -59.5t-25 -59.5t-62 -23.5t-62.5 23.5zM446.5 871.5q-25.5 23.5 -25.5 59.5t25.5 59.5
t62.5 23.5t62 -23.5t25 -59.5t-25 -59.5t-62 -23.5t-62.5 23.5z" />
    <glyph glyph-name="Agrave" unicode="&#xc0;" horiz-adv-x="792" 
d="M9 83q11 6 31 13l14 5q21 8 34 21.5t23 44.5l193 621h178l200 -610q13 -38 25 -54t29 -22l17 -6q23 -8 32 -15l-6 -81h-351l-7 83q13 5 35 11l13 4q13 5 19 13t6 22q0 9 -1 14l-21 73q-3 9 -14 9h-185q-12 0 -15 -11l-10 -35q-12 -41 -12 -55q0 -11 4 -17.5t14 -10.5
l11 -4q21 -8 33 -15l-7 -81h-277zM426 341q6 0 8 4.5t0 11.5l-61 216h-14l-62 -219l-1 -4q0 -9 10 -9h120zM219 930l72 137l243 -141l-50 -96z" />
    <glyph glyph-name="Amacron" unicode="&#x100;" horiz-adv-x="792" 
d="M9 83q11 6 31 13l14 5q21 8 34 21.5t23 44.5l193 621h178l200 -610q13 -38 25 -54t29 -22l17 -6q23 -8 32 -15l-6 -81h-351l-7 83q13 5 35 11l13 4q13 5 19 13t6 22q0 9 -1 14l-21 73q-3 9 -14 9h-185q-12 0 -15 -11l-10 -35q-12 -41 -12 -55q0 -11 4 -17.5t14 -10.5
l11 -4q21 -8 33 -15l-7 -81h-277zM426 341q6 0 8 4.5t0 11.5l-61 216h-14l-62 -219l-1 -4q0 -9 10 -9h120zM201 992h390v-122h-390v122z" />
    <glyph glyph-name="Aogonek" unicode="&#x104;" horiz-adv-x="792" 
d="M9 83q11 6 31 13l14 5q21 8 34 21.5t23 44.5l193 621h178l200 -610q13 -38 25 -54t29 -22l17 -6q23 -8 32 -15l-6 -81h-351l-7 83q13 5 35 11l13 4q13 5 19 13t6 22q0 9 -1 14l-21 73q-3 9 -14 9h-185q-12 0 -15 -11l-10 -35q-12 -41 -12 -55q0 -11 4 -17.5t14 -10.5
l11 -4q21 -8 33 -15l-7 -81h-277zM426 341q6 0 8 4.5t0 11.5l-61 216h-14l-62 -219l-1 -4q0 -9 10 -9h120zM521 -191.5q-36 25.5 -36 74.5q0 35 26.5 69.5t64.5 52.5h113q-30 -18 -46.5 -43t-16.5 -50q0 -15 8.5 -24t22.5 -9q30 0 63 33l49 -68q-26 -28 -64 -44.5t-84 -16.5
q-64 0 -100 25.5z" />
    <glyph glyph-name="Aring" unicode="&#xc5;" horiz-adv-x="792" 
d="M9 83q11 6 31 13l14 5q21 8 34 21.5t23 44.5l193 621h178l200 -610q13 -38 25 -54t29 -22l17 -6q23 -8 32 -15l-6 -81h-351l-7 83q13 5 35 11l13 4q13 5 19 13t6 22q0 9 -1 14l-21 73q-3 9 -14 9h-185q-12 0 -15 -11l-10 -35q-12 -41 -12 -55q0 -11 4 -17.5t14 -10.5
l11 -4q21 -8 33 -15l-7 -81h-277zM426 341q6 0 8 4.5t0 11.5l-61 216h-14l-62 -219l-1 -4q0 -9 10 -9h120zM298.5 860q-35.5 28 -35.5 75q0 48 36 76t98 28q60 0 96.5 -28.5t36.5 -74.5q0 -48 -36.5 -76t-98.5 -28q-61 0 -96.5 28zM424.5 909.5q11.5 10.5 11.5 26.5
q0 17 -11.5 27t-28.5 10t-28 -10t-11 -27q0 -16 11.5 -26.5t28.5 -10.5q16 0 27.5 10.5z" />
    <glyph glyph-name="Atilde" unicode="&#xc3;" horiz-adv-x="792" 
d="M9 83q11 6 31 13l14 5q21 8 34 21.5t23 44.5l193 621h178l200 -610q13 -38 25 -54t29 -22l17 -6q23 -8 32 -15l-6 -81h-351l-7 83q13 5 35 11l13 4q13 5 19 13t6 22q0 9 -1 14l-21 73q-3 9 -14 9h-185q-12 0 -15 -11l-10 -35q-12 -41 -12 -55q0 -11 4 -17.5t14 -10.5
l11 -4q21 -8 33 -15l-7 -81h-277zM426 341q6 0 8 4.5t0 11.5l-61 216h-14l-62 -219l-1 -4q0 -9 10 -9h120zM173 893q21 57 61 89.5t90 32.5q24 0 43 -7.5t41 -20.5q20 -11 32.5 -16t26.5 -5q18 0 30 12.5t21 38.5l92 -54q-12 -49 -49 -87.5t-87 -38.5q-27 0 -45 7t-42 20
q-19 11 -31.5 16t-27.5 5q-23 0 -36.5 -12.5t-23.5 -36.5z" />
    <glyph glyph-name="AE" unicode="&#xc6;" horiz-adv-x="988" 
d="M4 80q16 10 45 21l24 9q21 8 34.5 24.5t27.5 53.5l163 429q11 29 11 39q0 11 -5.5 17t-20.5 11l-18 7q-22 9 -32 16l8 81h691v-225h-87q-10 22 -21 51l-14 39q-4 13 -10 16t-23 3h-111q-14 0 -14 -14v-187q0 -14 14 -14h42q18 0 28 27l6 15q15 35 14 33l65 2v-263l-65 -4
q-5 6 -15 32l-5 12q-13 30 -28 30h-42q-14 0 -14 -14v-197q0 -14 14 -14h124q17 0 23 3t10 16l16 45q12 35 19 51h87v-231h-561l-6 82q7 7 27 14l19 6q16 5 22.5 12t8.5 20.5t2 44.5v36q0 17 -16 17h-136q-16 0 -21 -14l-25 -64q-9 -22 -9 -31q0 -8 5 -12.5t16 -8.5l18 -7
q21 -8 28 -15l-10 -80h-297zM434 344q12 0 17.5 6.5t5.5 22.5v299h-13l-105 -306q-3 -9 -3 -14q0 -8 12 -8h86z" />
    <glyph glyph-name="AEacute" unicode="&#x1fc;" horiz-adv-x="988" 
d="M4 80q16 10 45 21l24 9q21 8 34.5 24.5t27.5 53.5l163 429q11 29 11 39q0 11 -5.5 17t-20.5 11l-18 7q-22 9 -32 16l8 81h691v-225h-87q-10 22 -21 51l-14 39q-4 13 -10 16t-23 3h-111q-14 0 -14 -14v-187q0 -14 14 -14h42q18 0 28 27l6 15q15 35 14 33l65 2v-263l-65 -4
q-5 6 -15 32l-5 12q-13 30 -28 30h-42q-14 0 -14 -14v-197q0 -14 14 -14h124q17 0 23 3t10 16l16 45q12 35 19 51h87v-231h-561l-6 82q7 7 27 14l19 6q16 5 22.5 12t8.5 20.5t2 44.5v36q0 17 -16 17h-136q-16 0 -21 -14l-25 -64q-9 -22 -9 -31q0 -8 5 -12.5t16 -8.5l18 -7
q21 -8 28 -15l-10 -80h-297zM434 344q12 0 17.5 6.5t5.5 22.5v299h-13l-105 -306q-3 -9 -3 -14q0 -8 12 -8h86zM458 926l243 141l72 -137l-265 -100z" />
    <glyph glyph-name="B" unicode="B" horiz-adv-x="720" 
d="M38 82q9 9 27 14l19 6q16 5 22.5 12t8.5 20.5t2 44.5v431q0 31 -2 44t-8.5 20t-21.5 12l-15 5q-20 7 -31 16l5 81h317q129 0 202 -47.5t73 -133.5q0 -61 -33.5 -104t-90.5 -61v-5q78 -16 123 -68t45 -128q0 -73 -39 -127.5t-110.5 -84t-165.5 -29.5h-321zM345 485
q40 0 67 27t27 73q0 45 -23 67t-64 22h-26q-14 0 -14 -14v-160q0 -15 15 -15h18zM354 114q56 0 90 35t34 99q0 57 -38.5 92.5t-94.5 35.5h-17q-16 0 -16 -15v-233q0 -14 14 -14h28z" />
    <glyph glyph-name="C" unicode="C" horiz-adv-x="687" 
d="M123 92.5q-85 104.5 -85 299.5q0 127 42.5 219.5t117.5 140.5t172 48q78 0 128 -30q6 -3 9 -3q5 0 6 6l4 21h123v-258h-128l-6 35q-19 114 -112 114q-69 0 -110 -73t-41 -214q0 -148 39.5 -220t114.5 -72q48 0 88.5 40.5t64.5 113.5l113 -43q-30 -106 -104 -167.5
t-186 -61.5q-165 0 -250 104.5z" />
    <glyph glyph-name="Cacute" unicode="&#x106;" horiz-adv-x="687" 
d="M123 92.5q-85 104.5 -85 299.5q0 127 42.5 219.5t117.5 140.5t172 48q78 0 128 -30q6 -3 9 -3q5 0 6 6l4 21h123v-258h-128l-6 35q-19 114 -112 114q-69 0 -110 -73t-41 -214q0 -148 39.5 -220t114.5 -72q48 0 88.5 40.5t64.5 113.5l113 -43q-30 -106 -104 -167.5
t-186 -61.5q-165 0 -250 104.5zM226 926l243 141l72 -137l-265 -100z" />
    <glyph glyph-name="Ccaron" unicode="&#x10c;" horiz-adv-x="687" 
d="M123 92.5q-85 104.5 -85 299.5q0 127 42.5 219.5t117.5 140.5t172 48q78 0 128 -30q6 -3 9 -3q5 0 6 6l4 21h123v-258h-128l-6 35q-19 114 -112 114q-69 0 -110 -73t-41 -214q0 -148 39.5 -220t114.5 -72q48 0 88.5 40.5t64.5 113.5l113 -43q-30 -106 -104 -167.5
t-186 -61.5q-165 0 -250 104.5zM173 973l66 74l133 -95l132 95l66 -73l-131 -128h-136z" />
    <glyph glyph-name="Ccedilla" unicode="&#xc7;" horiz-adv-x="687" 
d="M123 92.5q-85 104.5 -85 299.5q0 127 42.5 219.5t117.5 140.5t172 48q78 0 128 -30q6 -3 9 -3q5 0 6 6l4 21h123v-258h-128l-6 35q-19 114 -112 114q-69 0 -110 -73t-41 -214q0 -148 39.5 -220t114.5 -72q48 0 88.5 40.5t64.5 113.5l113 -43q-30 -106 -104 -167.5
t-186 -61.5q-165 0 -250 104.5zM263 -217.5q-35 9.5 -58 24.5l28 76q39 -26 73 -26q16 0 25 7.5t9 21.5q0 36 -73 46l32 70h85l-12 -27q47 -11 74.5 -38.5t27.5 -66.5q0 -41 -35 -69t-101 -28q-40 0 -75 9.5z" />
    <glyph glyph-name="Ccircumflex" unicode="&#x108;" horiz-adv-x="687" 
d="M123 92.5q-85 104.5 -85 299.5q0 127 42.5 219.5t117.5 140.5t172 48q78 0 128 -30q6 -3 9 -3q5 0 6 6l4 21h123v-258h-128l-6 35q-19 114 -112 114q-69 0 -110 -73t-41 -214q0 -148 39.5 -220t114.5 -72q48 0 88.5 40.5t64.5 113.5l113 -43q-30 -106 -104 -167.5
t-186 -61.5q-165 0 -250 104.5zM173 902l131 133h136l130 -132l-66 -74l-133 100l-132 -100z" />
    <glyph glyph-name="Cdotaccent" unicode="&#x10a;" horiz-adv-x="687" 
d="M123 92.5q-85 104.5 -85 299.5q0 127 42.5 219.5t117.5 140.5t172 48q78 0 128 -30q6 -3 9 -3q5 0 6 6l4 21h123v-258h-128l-6 35q-19 114 -112 114q-69 0 -110 -73t-41 -214q0 -148 39.5 -220t114.5 -72q48 0 88.5 40.5t64.5 113.5l113 -43q-30 -106 -104 -167.5
t-186 -61.5q-165 0 -250 104.5zM301.5 878q-27.5 27 -27.5 69t27.5 68.5t72.5 26.5q42 0 70 -26.5t28 -68.5q0 -41 -28 -68.5t-70 -27.5q-45 0 -72.5 27z" />
    <glyph glyph-name="D" unicode="D" horiz-adv-x="763" 
d="M38 82q9 9 27 14l19 6q16 5 22.5 12t8.5 20.5t2 44.5v431q0 31 -2 44t-8.5 20t-21.5 12l-15 5q-20 7 -31 16l5 81h294q117 0 204.5 -45t135 -131.5t47.5 -209.5q0 -127 -47.5 -217.5t-133.5 -137.5t-201 -47h-299zM343 116q85 0 131 72t46 209q0 145 -41.5 210t-133.5 65
h-19q-14 0 -14 -14v-528q0 -14 14 -14h17z" />
    <glyph glyph-name="Eth" unicode="&#xd0;" horiz-adv-x="763" 
d="M542.5 743q87.5 -45 135 -131.5t47.5 -209.5q0 -127 -47.5 -217.5t-133.5 -137.5t-201 -47h-299l-6 82q9 9 27 14l19 6q16 5 22.5 12t8.5 20.5t2 44.5v172h-88v122h88v137q0 31 -2 44t-8.5 20t-21.5 12l-15 5q-20 7 -31 16l5 81h294q117 0 204.5 -45zM474 188
q46 72 46 209q0 145 -41.5 210t-133.5 65h-19q-14 0 -14 -14v-185h87v-122h-87v-221q0 -14 14 -14h17q85 0 131 72z" />
    <glyph glyph-name="Dcaron" unicode="&#x10e;" horiz-adv-x="763" 
d="M38 82q9 9 27 14l19 6q16 5 22.5 12t8.5 20.5t2 44.5v431q0 31 -2 44t-8.5 20t-21.5 12l-15 5q-20 7 -31 16l5 81h294q117 0 204.5 -45t135 -131.5t47.5 -209.5q0 -127 -47.5 -217.5t-133.5 -137.5t-201 -47h-299zM343 116q85 0 131 72t46 209q0 145 -41.5 210t-133.5 65
h-19q-14 0 -14 -14v-528q0 -14 14 -14h17zM173 973l66 74l133 -95l132 95l66 -73l-131 -128h-136z" />
    <glyph glyph-name="Dcroat" unicode="&#x110;" horiz-adv-x="763" 
d="M542.5 743q87.5 -45 135 -131.5t47.5 -209.5q0 -127 -47.5 -217.5t-133.5 -137.5t-201 -47h-299l-6 82q9 9 27 14l19 6q16 5 22.5 12t8.5 20.5t2 44.5v172h-88v122h88v137q0 31 -2 44t-8.5 20t-21.5 12l-15 5q-20 7 -31 16l5 81h294q117 0 204.5 -45zM474 188
q46 72 46 209q0 145 -41.5 210t-133.5 65h-19q-14 0 -14 -14v-185h87v-122h-87v-221q0 -14 14 -14h17q85 0 131 72z" />
    <glyph glyph-name="E" unicode="E" horiz-adv-x="657" 
d="M38 82q9 9 27 14l19 6q16 5 22.5 12t8.5 20.5t2 44.5v431q0 31 -2 44t-8.5 20t-21.5 12l-15 5q-20 7 -31 16l5 81h557v-225h-87q-10 22 -21 51l-14 39q-4 13 -10 16t-23 3h-120q-14 0 -14 -14v-187q0 -14 14 -14h51q18 0 28 27l6 15q15 35 14 33l65 -2v-261l-65 -2
q-5 6 -15 32l-5 12q-13 30 -28 30h-51q-14 0 -14 -14v-197q0 -14 14 -14h133q17 0 23 3t10 16l16 45q12 35 19 51h87v-231h-570z" />
    <glyph glyph-name="Eacute" unicode="&#xc9;" horiz-adv-x="657" 
d="M38 82q9 9 27 14l19 6q16 5 22.5 12t8.5 20.5t2 44.5v431q0 31 -2 44t-8.5 20t-21.5 12l-15 5q-20 7 -31 16l5 81h557v-225h-87q-10 22 -21 51l-14 39q-4 13 -10 16t-23 3h-120q-14 0 -14 -14v-187q0 -14 14 -14h51q18 0 28 27l6 15q15 35 14 33l65 -2v-261l-65 -2
q-5 6 -15 32l-5 12q-13 30 -28 30h-51q-14 0 -14 -14v-197q0 -14 14 -14h133q17 0 23 3t10 16l16 45q12 35 19 51h87v-231h-570zM204 926l243 141l72 -137l-265 -100z" />
    <glyph glyph-name="Ebreve" unicode="&#x114;" horiz-adv-x="657" 
d="M38 82q9 9 27 14l19 6q16 5 22.5 12t8.5 20.5t2 44.5v431q0 31 -2 44t-8.5 20t-21.5 12l-15 5q-20 7 -31 16l5 81h557v-225h-87q-10 22 -21 51l-14 39q-4 13 -10 16t-23 3h-120q-14 0 -14 -14v-187q0 -14 14 -14h51q18 0 28 27l6 15q15 35 14 33l65 -2v-261l-65 -2
q-5 6 -15 32l-5 12q-13 30 -28 30h-51q-14 0 -14 -14v-197q0 -14 14 -14h133q17 0 23 3t10 16l16 45q12 35 19 51h87v-231h-570zM214 897.5q-49 47.5 -54 120.5h125q7 -28 24 -42t42 -14q51 0 64 56h125q-5 -72 -54.5 -120t-135.5 -48q-87 0 -136 47.5z" />
    <glyph glyph-name="Ecaron" unicode="&#x11a;" horiz-adv-x="657" 
d="M38 82q9 9 27 14l19 6q16 5 22.5 12t8.5 20.5t2 44.5v431q0 31 -2 44t-8.5 20t-21.5 12l-15 5q-20 7 -31 16l5 81h557v-225h-87q-10 22 -21 51l-14 39q-4 13 -10 16t-23 3h-120q-14 0 -14 -14v-187q0 -14 14 -14h51q18 0 28 27l6 15q15 35 14 33l65 -2v-261l-65 -2
q-5 6 -15 32l-5 12q-13 30 -28 30h-51q-14 0 -14 -14v-197q0 -14 14 -14h133q17 0 23 3t10 16l16 45q12 35 19 51h87v-231h-570zM151 973l66 74l133 -95l132 95l66 -73l-131 -128h-136z" />
    <glyph glyph-name="Ecircumflex" unicode="&#xca;" horiz-adv-x="657" 
d="M38 82q9 9 27 14l19 6q16 5 22.5 12t8.5 20.5t2 44.5v431q0 31 -2 44t-8.5 20t-21.5 12l-15 5q-20 7 -31 16l5 81h557v-225h-87q-10 22 -21 51l-14 39q-4 13 -10 16t-23 3h-120q-14 0 -14 -14v-187q0 -14 14 -14h51q18 0 28 27l6 15q15 35 14 33l65 -2v-261l-65 -2
q-5 6 -15 32l-5 12q-13 30 -28 30h-51q-14 0 -14 -14v-197q0 -14 14 -14h133q17 0 23 3t10 16l16 45q12 35 19 51h87v-231h-570zM151 902l131 133h136l130 -132l-66 -74l-133 100l-132 -100z" />
    <glyph glyph-name="Edieresis" unicode="&#xcb;" horiz-adv-x="657" 
d="M38 82q9 9 27 14l19 6q16 5 22.5 12t8.5 20.5t2 44.5v431q0 31 -2 44t-8.5 20t-21.5 12l-15 5q-20 7 -31 16l5 81h557v-225h-87q-10 22 -21 51l-14 39q-4 13 -10 16t-23 3h-120q-14 0 -14 -14v-187q0 -14 14 -14h51q18 0 28 27l6 15q15 35 14 33l65 -2v-261l-65 -2
q-5 6 -15 32l-5 12q-13 30 -28 30h-51q-14 0 -14 -14v-197q0 -14 14 -14h133q17 0 23 3t10 16l16 45q12 35 19 51h87v-231h-570zM175.5 871.5q-25.5 23.5 -25.5 59.5t25.5 59.5t62.5 23.5t62 -23.5t25 -59.5t-25 -59.5t-62 -23.5t-62.5 23.5zM400.5 871.5
q-25.5 23.5 -25.5 59.5t25.5 59.5t62.5 23.5t62 -23.5t25 -59.5t-25 -59.5t-62 -23.5t-62.5 23.5z" />
    <glyph glyph-name="Edotaccent" unicode="&#x116;" horiz-adv-x="657" 
d="M38 82q9 9 27 14l19 6q16 5 22.5 12t8.5 20.5t2 44.5v431q0 31 -2 44t-8.5 20t-21.5 12l-15 5q-20 7 -31 16l5 81h557v-225h-87q-10 22 -21 51l-14 39q-4 13 -10 16t-23 3h-120q-14 0 -14 -14v-187q0 -14 14 -14h51q18 0 28 27l6 15q15 35 14 33l65 -2v-261l-65 -2
q-5 6 -15 32l-5 12q-13 30 -28 30h-51q-14 0 -14 -14v-197q0 -14 14 -14h133q17 0 23 3t10 16l16 45q12 35 19 51h87v-231h-570zM279.5 878q-27.5 27 -27.5 69t27.5 68.5t72.5 26.5q42 0 70 -26.5t28 -68.5q0 -41 -28 -68.5t-70 -27.5q-45 0 -72.5 27z" />
    <glyph glyph-name="Egrave" unicode="&#xc8;" horiz-adv-x="657" 
d="M38 82q9 9 27 14l19 6q16 5 22.5 12t8.5 20.5t2 44.5v431q0 31 -2 44t-8.5 20t-21.5 12l-15 5q-20 7 -31 16l5 81h557v-225h-87q-10 22 -21 51l-14 39q-4 13 -10 16t-23 3h-120q-14 0 -14 -14v-187q0 -14 14 -14h51q18 0 28 27l6 15q15 35 14 33l65 -2v-261l-65 -2
q-5 6 -15 32l-5 12q-13 30 -28 30h-51q-14 0 -14 -14v-197q0 -14 14 -14h133q17 0 23 3t10 16l16 45q12 35 19 51h87v-231h-570zM173 930l72 137l243 -141l-50 -96z" />
    <glyph glyph-name="Emacron" unicode="&#x112;" horiz-adv-x="657" 
d="M38 82q9 9 27 14l19 6q16 5 22.5 12t8.5 20.5t2 44.5v431q0 31 -2 44t-8.5 20t-21.5 12l-15 5q-20 7 -31 16l5 81h557v-225h-87q-10 22 -21 51l-14 39q-4 13 -10 16t-23 3h-120q-14 0 -14 -14v-187q0 -14 14 -14h51q18 0 28 27l6 15q15 35 14 33l65 -2v-261l-65 -2
q-5 6 -15 32l-5 12q-13 30 -28 30h-51q-14 0 -14 -14v-197q0 -14 14 -14h133q17 0 23 3t10 16l16 45q12 35 19 51h87v-231h-570zM155 992h390v-122h-390v122z" />
    <glyph glyph-name="Eogonek" unicode="&#x118;" horiz-adv-x="657" 
d="M38 82q9 9 27 14l19 6q16 5 22.5 12t8.5 20.5t2 44.5v431q0 31 -2 44t-8.5 20t-21.5 12l-15 5q-20 7 -31 16l5 81h557v-225h-87q-10 22 -21 51l-14 39q-4 13 -10 16t-23 3h-120q-14 0 -14 -14v-187q0 -14 14 -14h51q18 0 28 27l6 15q15 35 14 33l65 -2v-261l-65 -2
q-5 6 -15 32l-5 12q-13 30 -28 30h-51q-14 0 -14 -14v-197q0 -14 14 -14h133q17 0 23 3t10 16l16 45q12 35 19 51h87v-231h-570zM400 -191.5q-36 25.5 -36 74.5q0 35 26.5 69.5t64.5 52.5h113q-30 -18 -46.5 -43t-16.5 -50q0 -15 8.5 -24t22.5 -9q30 0 63 33l49 -68
q-26 -28 -64 -44.5t-84 -16.5q-64 0 -100 25.5z" />
    <glyph glyph-name="F" unicode="F" horiz-adv-x="643" 
d="M38 82q9 9 27 14l19 6q16 5 22.5 12t8.5 20.5t2 44.5v431q0 31 -2 44t-8.5 20t-21.5 12l-15 5q-20 7 -31 16l5 81h563v-231h-87q-7 16 -19 51l-16 45q-4 13 -10 16t-23 3h-126q-14 0 -14 -14v-204q0 -14 14 -14h56q13 0 21 6t14 21l6 15q15 35 14 33l65 -4v-257l-65 -4
q-5 6 -15 32l-5 12q-8 18 -15.5 24t-19.5 6h-56q-14 0 -14 -14v-132q0 -31 2 -44t8.5 -20t21.5 -12l15 -5q20 -7 31 -16l-5 -81h-341z" />
    <glyph glyph-name="G" unicode="G" horiz-adv-x="750" 
d="M193 35q-74 47 -114.5 137t-40.5 217q0 129 42.5 221.5t118.5 141t175 48.5q43 0 81.5 -9t64.5 -26q4 -3 7 -3q5 0 6 9l4 23h117v-258h-124l-5 30q-10 60 -43 90t-82 30q-45 0 -80.5 -32t-56 -97t-20.5 -159q0 -149 37 -221t112 -72q49 0 78 34.5t29 90.5v40
q0 23 -8 32.5t-28 11.5l-27 3q-22 3 -44 9l5 100h287v-426h-124l-14 40q-3 10 -9 10q-4 0 -10 -6q-26 -26 -68.5 -41t-92.5 -15q-99 0 -173 47z" />
    <glyph glyph-name="Gbreve" unicode="&#x11e;" horiz-adv-x="750" 
d="M193 35q-74 47 -114.5 137t-40.5 217q0 129 42.5 221.5t118.5 141t175 48.5q43 0 81.5 -9t64.5 -26q4 -3 7 -3q5 0 6 9l4 23h117v-258h-124l-5 30q-10 60 -43 90t-82 30q-45 0 -80.5 -32t-56 -97t-20.5 -159q0 -149 37 -221t112 -72q49 0 78 34.5t29 90.5v40
q0 23 -8 32.5t-28 11.5l-27 3q-22 3 -44 9l5 100h287v-426h-124l-14 40q-3 10 -9 10q-4 0 -10 -6q-26 -26 -68.5 -41t-92.5 -15q-99 0 -173 47zM241 897.5q-49 47.5 -54 120.5h125q7 -28 24 -42t42 -14q51 0 64 56h125q-5 -72 -54.5 -120t-135.5 -48q-87 0 -136 47.5z" />
    <glyph glyph-name="Gcircumflex" unicode="&#x11c;" horiz-adv-x="750" 
d="M193 35q-74 47 -114.5 137t-40.5 217q0 129 42.5 221.5t118.5 141t175 48.5q43 0 81.5 -9t64.5 -26q4 -3 7 -3q5 0 6 9l4 23h117v-258h-124l-5 30q-10 60 -43 90t-82 30q-45 0 -80.5 -32t-56 -97t-20.5 -159q0 -149 37 -221t112 -72q49 0 78 34.5t29 90.5v40
q0 23 -8 32.5t-28 11.5l-27 3q-22 3 -44 9l5 100h287v-426h-124l-14 40q-3 10 -9 10q-4 0 -10 -6q-26 -26 -68.5 -41t-92.5 -15q-99 0 -173 47zM178 902l131 133h136l130 -132l-66 -74l-133 100l-132 -100z" />
    <glyph glyph-name="Gcommaaccent" unicode="&#x122;" horiz-adv-x="750" 
d="M193 35q-74 47 -114.5 137t-40.5 217q0 129 42.5 221.5t118.5 141t175 48.5q43 0 81.5 -9t64.5 -26q4 -3 7 -3q5 0 6 9l4 23h117v-258h-124l-5 30q-10 60 -43 90t-82 30q-45 0 -80.5 -32t-56 -97t-20.5 -159q0 -149 37 -221t112 -72q49 0 78 34.5t29 90.5v40
q0 23 -8 32.5t-28 11.5l-27 3q-22 3 -44 9l5 100h287v-426h-124l-14 40q-3 10 -9 10q-4 0 -10 -6q-26 -26 -68.5 -41t-92.5 -15q-99 0 -173 47zM296 -303q26 19 42 39.5t16 38.5q0 7 -4 13t-12 13q-13 12 -20 23t-7 31q0 31 23 51t60 20q42 0 69.5 -30t27.5 -78
q0 -42 -31.5 -92.5t-84.5 -85.5z" />
    <glyph glyph-name="Gdotaccent" unicode="&#x120;" horiz-adv-x="750" 
d="M193 35q-74 47 -114.5 137t-40.5 217q0 129 42.5 221.5t118.5 141t175 48.5q43 0 81.5 -9t64.5 -26q4 -3 7 -3q5 0 6 9l4 23h117v-258h-124l-5 30q-10 60 -43 90t-82 30q-45 0 -80.5 -32t-56 -97t-20.5 -159q0 -149 37 -221t112 -72q49 0 78 34.5t29 90.5v40
q0 23 -8 32.5t-28 11.5l-27 3q-22 3 -44 9l5 100h287v-426h-124l-14 40q-3 10 -9 10q-4 0 -10 -6q-26 -26 -68.5 -41t-92.5 -15q-99 0 -173 47zM306.5 878q-27.5 27 -27.5 69t27.5 68.5t72.5 26.5q42 0 70 -26.5t28 -68.5q0 -41 -28 -68.5t-70 -27.5q-45 0 -72.5 27z" />
    <glyph glyph-name="H" unicode="H" horiz-adv-x="839" 
d="M38 82q9 9 27 14l19 6q16 5 22.5 12t8.5 20.5t2 44.5v431q0 31 -2 44t-8.5 20t-21.5 12l-15 5q-20 7 -31 16l5 81h341l6 -82q-9 -9 -27 -14l-19 -6q-16 -5 -22.5 -12t-8.5 -20.5t-2 -44.5v-110q0 -14 14 -14h187q14 0 14 14v111q0 31 -2 44t-8.5 20t-21.5 12l-15 5
q-20 7 -31 16l5 81h341l6 -82q-9 -9 -27 -14l-19 -6q-16 -5 -22.5 -12t-8.5 -20.5t-2 -44.5v-431q0 -31 2 -44t8.5 -20t21.5 -12l15 -5q20 -7 31 -16l-5 -81h-341l-6 82q9 9 27 14l19 6q16 5 22.5 12t8.5 20.5t2 44.5v174q0 14 -14 14h-187q-14 0 -14 -14v-175q0 -31 2 -44
t8.5 -20t21.5 -12l15 -5q20 -7 31 -16l-5 -81h-341z" />
    <glyph glyph-name="Hbar" unicode="&#x126;" horiz-adv-x="817" 
d="M711 522v-344q0 -31 2 -44t8.5 -20t21.5 -12l15 -5q20 -7 31 -16l-5 -81h-341l-6 82q9 9 27 14l19 6q16 5 22.5 12t8.5 20.5t2 44.5v174q0 14 -14 14h-187q-14 0 -14 -14v-175q0 -31 2 -44t8.5 -20t21.5 -12l15 -5q20 -7 31 -16l-5 -81h-341l-6 82q9 9 27 14l19 6
q16 5 22.5 12t8.5 20.5t2 44.5v343h-88v100h88q0 35 -5.5 46t-26.5 18l-15 5q-20 7 -31 16l5 81h341l6 -82q-9 -9 -27 -14l-19 -6q-21 -7 -26.5 -18.5t-6.5 -45.5h215q0 35 -5.5 46t-26.5 18l-15 5q-20 7 -31 16l5 81h341l6 -82q-9 -9 -27 -14l-19 -6q-21 -7 -26.5 -18.5
t-6.5 -45.5h88v-100h-88zM516 522h-215v-23q0 -14 14 -14h187q14 0 14 14v23z" />
    <glyph glyph-name="Hcircumflex" unicode="&#x124;" horiz-adv-x="839" 
d="M38 82q9 9 27 14l19 6q16 5 22.5 12t8.5 20.5t2 44.5v431q0 31 -2 44t-8.5 20t-21.5 12l-15 5q-20 7 -31 16l5 81h341l6 -82q-9 -9 -27 -14l-19 -6q-16 -5 -22.5 -12t-8.5 -20.5t-2 -44.5v-110q0 -14 14 -14h187q14 0 14 14v111q0 31 -2 44t-8.5 20t-21.5 12l-15 5
q-20 7 -31 16l5 81h341l6 -82q-9 -9 -27 -14l-19 -6q-16 -5 -22.5 -12t-8.5 -20.5t-2 -44.5v-431q0 -31 2 -44t8.5 -20t21.5 -12l15 -5q20 -7 31 -16l-5 -81h-341l-6 82q9 9 27 14l19 6q16 5 22.5 12t8.5 20.5t2 44.5v174q0 14 -14 14h-187q-14 0 -14 -14v-175q0 -31 2 -44
t8.5 -20t21.5 -12l15 -5q20 -7 31 -16l-5 -81h-341zM218 902l131 133h136l130 -132l-66 -74l-133 100l-132 -100z" />
    <glyph glyph-name="I" unicode="I" horiz-adv-x="441" 
d="M44 82q9 9 27 14l19 6q16 5 22.5 12t8.5 20.5t2 44.5v431q0 31 -2 44t-8.5 20t-21.5 12l-15 5q-20 7 -31 16l5 81h341l6 -82q-9 -9 -27 -14l-19 -6q-16 -5 -22.5 -12t-8.5 -20.5t-2 -44.5v-431q0 -31 2 -44t8.5 -20t21.5 -12l15 -5q20 -7 31 -16l-5 -81h-341z" />
    <glyph glyph-name="IJ" unicode="&#x132;" horiz-adv-x="1004" 
d="M44 82q9 9 27 14l19 6q16 5 22.5 12t8.5 20.5t2 44.5v431q0 31 -2 44t-8.5 20t-21.5 12l-15 5q-20 7 -31 16l5 81h341l6 -82q-9 -9 -27 -14l-19 -6q-16 -5 -22.5 -12t-8.5 -20.5t-2 -44.5v-431q0 -31 2 -44t8.5 -20t21.5 -12l15 -5q20 -7 31 -16l-5 -81h-341zM497 37
q-57 49 -57 149q0 24 10.5 34t31.5 10h155v-85q0 -51 36 -51q16 0 24.5 17t8.5 60v439q0 31 -2 44t-8.5 20t-21.5 12l-15 5q-20 7 -31 16l5 81h341l6 -82q-9 -9 -27 -14l-19 -6q-16 -5 -22.5 -12t-8.5 -20.5t-2 -44.5v-389q0 -121 -55 -176.5t-172 -55.5q-120 0 -177 49z
" />
    <glyph glyph-name="Iacute" unicode="&#xcd;" horiz-adv-x="441" 
d="M44 82q9 9 27 14l19 6q16 5 22.5 12t8.5 20.5t2 44.5v431q0 31 -2 44t-8.5 20t-21.5 12l-15 5q-20 7 -31 16l5 81h341l6 -82q-9 -9 -27 -14l-19 -6q-16 -5 -22.5 -12t-8.5 -20.5t-2 -44.5v-431q0 -31 2 -44t8.5 -20t21.5 -12l15 -5q20 -7 31 -16l-5 -81h-341zM75 926
l243 141l72 -137l-265 -100z" />
    <glyph glyph-name="Ibreve" unicode="&#x12c;" horiz-adv-x="441" 
d="M44 82q9 9 27 14l19 6q16 5 22.5 12t8.5 20.5t2 44.5v431q0 31 -2 44t-8.5 20t-21.5 12l-15 5q-20 7 -31 16l5 81h341l6 -82q-9 -9 -27 -14l-19 -6q-16 -5 -22.5 -12t-8.5 -20.5t-2 -44.5v-431q0 -31 2 -44t8.5 -20t21.5 -12l15 -5q20 -7 31 -16l-5 -81h-341zM85 897.5
q-49 47.5 -54 120.5h125q7 -28 24 -42t42 -14q51 0 64 56h125q-5 -72 -54.5 -120t-135.5 -48q-87 0 -136 47.5z" />
    <glyph glyph-name="Icircumflex" unicode="&#xce;" horiz-adv-x="441" 
d="M44 82q9 9 27 14l19 6q16 5 22.5 12t8.5 20.5t2 44.5v431q0 31 -2 44t-8.5 20t-21.5 12l-15 5q-20 7 -31 16l5 81h341l6 -82q-9 -9 -27 -14l-19 -6q-16 -5 -22.5 -12t-8.5 -20.5t-2 -44.5v-431q0 -31 2 -44t8.5 -20t21.5 -12l15 -5q20 -7 31 -16l-5 -81h-341zM22 902
l131 133h136l130 -132l-66 -74l-133 100l-132 -100z" />
    <glyph glyph-name="Idieresis" unicode="&#xcf;" horiz-adv-x="441" 
d="M44 82q9 9 27 14l19 6q16 5 22.5 12t8.5 20.5t2 44.5v431q0 31 -2 44t-8.5 20t-21.5 12l-15 5q-20 7 -31 16l5 81h341l6 -82q-9 -9 -27 -14l-19 -6q-16 -5 -22.5 -12t-8.5 -20.5t-2 -44.5v-431q0 -31 2 -44t8.5 -20t21.5 -12l15 -5q20 -7 31 -16l-5 -81h-341zM46.5 871.5
q-25.5 23.5 -25.5 59.5t25.5 59.5t62.5 23.5t62 -23.5t25 -59.5t-25 -59.5t-62 -23.5t-62.5 23.5zM271.5 871.5q-25.5 23.5 -25.5 59.5t25.5 59.5t62.5 23.5t62 -23.5t25 -59.5t-25 -59.5t-62 -23.5t-62.5 23.5z" />
    <glyph glyph-name="Idotaccent" unicode="&#x130;" horiz-adv-x="441" 
d="M44 82q9 9 27 14l19 6q16 5 22.5 12t8.5 20.5t2 44.5v431q0 31 -2 44t-8.5 20t-21.5 12l-15 5q-20 7 -31 16l5 81h341l6 -82q-9 -9 -27 -14l-19 -6q-16 -5 -22.5 -12t-8.5 -20.5t-2 -44.5v-431q0 -31 2 -44t8.5 -20t21.5 -12l15 -5q20 -7 31 -16l-5 -81h-341zM150.5 878
q-27.5 27 -27.5 69t27.5 68.5t72.5 26.5q42 0 70 -26.5t28 -68.5q0 -41 -28 -68.5t-70 -27.5q-45 0 -72.5 27z" />
    <glyph glyph-name="Igrave" unicode="&#xcc;" horiz-adv-x="441" 
d="M44 82q9 9 27 14l19 6q16 5 22.5 12t8.5 20.5t2 44.5v431q0 31 -2 44t-8.5 20t-21.5 12l-15 5q-20 7 -31 16l5 81h341l6 -82q-9 -9 -27 -14l-19 -6q-16 -5 -22.5 -12t-8.5 -20.5t-2 -44.5v-431q0 -31 2 -44t8.5 -20t21.5 -12l15 -5q20 -7 31 -16l-5 -81h-341zM44 930
l72 137l243 -141l-50 -96z" />
    <glyph glyph-name="Imacron" unicode="&#x12a;" horiz-adv-x="441" 
d="M44 82q9 9 27 14l19 6q16 5 22.5 12t8.5 20.5t2 44.5v431q0 31 -2 44t-8.5 20t-21.5 12l-15 5q-20 7 -31 16l5 81h341l6 -82q-9 -9 -27 -14l-19 -6q-16 -5 -22.5 -12t-8.5 -20.5t-2 -44.5v-431q0 -31 2 -44t8.5 -20t21.5 -12l15 -5q20 -7 31 -16l-5 -81h-341zM26 992h390
v-122h-390v122z" />
    <glyph glyph-name="Iogonek" unicode="&#x12e;" horiz-adv-x="441" 
d="M44 82q9 9 27 14l19 6q16 5 22.5 12t8.5 20.5t2 44.5v431q0 31 -2 44t-8.5 20t-21.5 12l-15 5q-20 7 -31 16l5 81h341l6 -82q-9 -9 -27 -14l-19 -6q-16 -5 -22.5 -12t-8.5 -20.5t-2 -44.5v-431q0 -31 2 -44t8.5 -20t21.5 -12l15 -5q20 -7 31 -16l-5 -81h-341zM135 -191.5
q-36 25.5 -36 74.5q0 35 26.5 69.5t64.5 52.5h113q-30 -18 -46.5 -43t-16.5 -50q0 -15 8.5 -24t22.5 -9q30 0 63 33l49 -68q-26 -28 -64 -44.5t-84 -16.5q-64 0 -100 25.5z" />
    <glyph glyph-name="Itilde" unicode="&#x128;" horiz-adv-x="441" 
d="M44 82q9 9 27 14l19 6q16 5 22.5 12t8.5 20.5t2 44.5v431q0 31 -2 44t-8.5 20t-21.5 12l-15 5q-20 7 -31 16l5 81h341l6 -82q-9 -9 -27 -14l-19 -6q-16 -5 -22.5 -12t-8.5 -20.5t-2 -44.5v-431q0 -31 2 -44t8.5 -20t21.5 -12l15 -5q20 -7 31 -16l-5 -81h-341zM-2 893
q21 57 61 89.5t90 32.5q24 0 43 -7.5t41 -20.5q20 -11 32.5 -16t26.5 -5q18 0 30 12.5t21 38.5l92 -54q-12 -49 -49 -87.5t-87 -38.5q-27 0 -45 7t-42 20q-19 11 -31.5 16t-27.5 5q-23 0 -36.5 -12.5t-23.5 -36.5z" />
    <glyph glyph-name="J" unicode="J" horiz-adv-x="598" 
d="M91 37q-57 49 -57 149q0 24 10.5 34t31.5 10h155v-85q0 -51 36 -51q16 0 24.5 17t8.5 60v439q0 31 -2 44t-8.5 20t-21.5 12l-15 5q-20 7 -31 16l5 81h341l6 -82q-9 -9 -27 -14l-19 -6q-16 -5 -22.5 -12t-8.5 -20.5t-2 -44.5v-389q0 -121 -55 -176.5t-172 -55.5
q-120 0 -177 49z" />
    <glyph glyph-name="uni00A40301" horiz-adv-x="598" 
d="M91 37q-57 49 -57 149q0 24 10.5 34t31.5 10h155v-85q0 -51 36 -51q16 0 24.5 17t8.5 60v439q0 31 -2 44t-8.5 20t-21.5 12l-15 5q-20 7 -31 16l5 81h341l6 -82q-9 -9 -27 -14l-19 -6q-16 -5 -22.5 -12t-8.5 -20.5t-2 -44.5v-389q0 -121 -55 -176.5t-172 -55.5
q-120 0 -177 49zM254 926l243 141l72 -137l-265 -100z" />
    <glyph glyph-name="Jcircumflex" unicode="&#x134;" horiz-adv-x="598" 
d="M91 37q-57 49 -57 149q0 24 10.5 34t31.5 10h155v-85q0 -51 36 -51q16 0 24.5 17t8.5 60v439q0 31 -2 44t-8.5 20t-21.5 12l-15 5q-20 7 -31 16l5 81h341l6 -82q-9 -9 -27 -14l-19 -6q-16 -5 -22.5 -12t-8.5 -20.5t-2 -44.5v-389q0 -121 -55 -176.5t-172 -55.5
q-120 0 -177 49zM201 902l131 133h136l130 -132l-66 -74l-133 100l-132 -100z" />
    <glyph glyph-name="K" unicode="K" horiz-adv-x="772" 
d="M758 81l-4 -81h-233l-174 331q-2 3 -5 3.5t-6 -1.5q-14 -10 -19 -17t-5 -17v-121q0 -31 2 -44t8.5 -20t21.5 -12l15 -5q20 -7 31 -16l-5 -81h-341l-6 82q9 9 27 14l19 6q16 5 22.5 12t8.5 20.5t2 44.5v431q0 31 -2 44t-8.5 20t-21.5 12l-15 5q-20 7 -31 16l5 81h341
l6 -82q-9 -9 -27 -14l-19 -6q-21 -7 -27 -21t-6 -56v-141l166 190q9 12 9 22q0 14 -12 18l-12 5q-11 4 -19 12l6 73h294l4 -80q-7 -9 -33 -15l-22 -6q-24 -6 -46 -20.5t-49 -43.5l-114 -127q-6 -6 -6 -13t4 -14l155 -289q23 -43 38.5 -59.5t34.5 -21.5l13 -4q20 -6 35 -14z
" />
    <glyph glyph-name="Kcommaaccent" unicode="&#x136;" horiz-adv-x="772" 
d="M758 81l-4 -81h-233l-174 331q-2 3 -5 3.5t-6 -1.5q-14 -10 -19 -17t-5 -17v-121q0 -31 2 -44t8.5 -20t21.5 -12l15 -5q20 -7 31 -16l-5 -81h-341l-6 82q9 9 27 14l19 6q16 5 22.5 12t8.5 20.5t2 44.5v431q0 31 -2 44t-8.5 20t-21.5 12l-15 5q-20 7 -31 16l5 81h341
l6 -82q-9 -9 -27 -14l-19 -6q-21 -7 -27 -21t-6 -56v-141l166 190q9 12 9 22q0 14 -12 18l-12 5q-11 4 -19 12l6 73h294l4 -80q-7 -9 -33 -15l-22 -6q-24 -6 -46 -20.5t-49 -43.5l-114 -127q-6 -6 -6 -13t4 -14l155 -289q23 -43 38.5 -59.5t34.5 -21.5l13 -4q20 -6 35 -14z
M325 -303q26 19 42 39.5t16 38.5q0 7 -4 13t-12 13q-13 12 -20 23t-7 31q0 31 23 51t60 20q42 0 69.5 -30t27.5 -78q0 -42 -31.5 -92.5t-84.5 -85.5z" />
    <glyph glyph-name="L" unicode="L" horiz-adv-x="628" 
d="M38 82q9 9 27 14l19 6q16 5 22.5 12t8.5 20.5t2 44.5v431q0 31 -2 44t-8.5 20t-21.5 12l-15 5q-20 7 -31 16l5 81h341l6 -82q-9 -9 -27 -14l-19 -6q-16 -5 -22.5 -12t-8.5 -20.5t-2 -44.5v-479q0 -14 14 -14h121q17 0 23 3t10 16l16 45q12 35 19 51h87v-231h-558z" />
    <glyph glyph-name="Lacute" unicode="&#x139;" horiz-adv-x="628" 
d="M38 82q9 9 27 14l19 6q16 5 22.5 12t8.5 20.5t2 44.5v431q0 31 -2 44t-8.5 20t-21.5 12l-15 5q-20 7 -31 16l5 81h341l6 -82q-9 -9 -27 -14l-19 -6q-16 -5 -22.5 -12t-8.5 -20.5t-2 -44.5v-479q0 -14 14 -14h121q17 0 23 3t10 16l16 45q12 35 19 51h87v-231h-558zM74 926
l243 141l72 -137l-265 -100z" />
    <glyph glyph-name="Lcaron" unicode="&#x13d;" horiz-adv-x="628" 
d="M38 82q9 9 27 14l19 6q16 5 22.5 12t8.5 20.5t2 44.5v431q0 31 -2 44t-8.5 20t-21.5 12l-15 5q-20 7 -31 16l5 81h341l6 -82q-9 -9 -27 -14l-19 -6q-16 -5 -22.5 -12t-8.5 -20.5t-2 -44.5v-479q0 -14 14 -14h121q17 0 23 3t10 16l16 45q12 35 19 51h87v-231h-558z
M427 573q53 45 53 78q0 13 -15 30q-11 13 -17 25t-6 30q0 28 22 46t53 18q39 0 63.5 -26t24.5 -71q0 -44 -28 -94.5t-78 -89.5z" />
    <glyph glyph-name="Lcommaaccent" unicode="&#x13b;" horiz-adv-x="628" 
d="M38 82q9 9 27 14l19 6q16 5 22.5 12t8.5 20.5t2 44.5v431q0 31 -2 44t-8.5 20t-21.5 12l-15 5q-20 7 -31 16l5 81h341l6 -82q-9 -9 -27 -14l-19 -6q-16 -5 -22.5 -12t-8.5 -20.5t-2 -44.5v-479q0 -14 14 -14h121q17 0 23 3t10 16l16 45q12 35 19 51h87v-231h-558z
M232 -303q26 19 42 39.5t16 38.5q0 7 -4 13t-12 13q-13 12 -20 23t-7 31q0 31 23 51t60 20q42 0 69.5 -30t27.5 -78q0 -42 -31.5 -92.5t-84.5 -85.5z" />
    <glyph glyph-name="Ldot" unicode="&#x13f;" horiz-adv-x="634" 
d="M38 82q9 9 27 14l19 6q16 5 22.5 12t8.5 20.5t2 44.5v431q0 31 -2 44t-8.5 20t-21.5 12l-15 5q-20 7 -31 16l5 81h341l6 -82q-9 -9 -27 -14l-19 -6q-16 -5 -22.5 -12t-8.5 -20.5t-2 -44.5v-479q0 -14 14 -14h121q17 0 23 3t10 16l16 45q12 35 19 51h87v-231h-558z
M456 390q-31 31 -31 76q0 44 31 74.5t76 30.5q44 0 74.5 -30.5t30.5 -74.5q0 -45 -30.5 -76t-74.5 -31q-45 0 -76 31z" />
    <glyph glyph-name="Lslash" unicode="&#x141;" horiz-adv-x="656" 
d="M630 231v-231h-558l-6 82q9 9 27 14l19 6q16 5 22.5 12t8.5 20.5t2 44.5v126l-72 -38l-58 108l130 68v167q0 31 -2 44t-8.5 20t-21.5 12l-15 5q-20 7 -31 16l5 81h341l6 -82q-9 -9 -27 -14l-19 -6q-16 -5 -22.5 -12t-8.5 -20.5t-2 -44.5v-64l105 55l57 -108l-162 -85
v-277q0 -14 14 -14h121q17 0 23 3t10 16l16 45q12 35 19 51h87z" />
    <glyph glyph-name="M" unicode="M" horiz-adv-x="969" 
d="M38 82q9 9 27 14l19 6q16 5 22.5 12t8.5 20.5t2 44.5v432q0 31 -1.5 44t-8.5 19.5t-24 12.5l-20 7q-15 5 -24 14l5 80h275l174 -401l175 401h258l5 -80q-9 -9 -24 -14l-20 -7q-17 -6 -24 -12.5t-8.5 -19.5t-1.5 -44v-432q0 -31 2 -44.5t8.5 -20.5t21.5 -12l15 -5
q20 -7 31 -16l-5 -81h-306l-6 82q9 9 27 14l19 6q16 5 22.5 12t8.5 20.5t2 44.5v357l-154 -365h-143l-147 334v-326q0 -31 2 -44.5t8.5 -20.5t21.5 -12l15 -5q20 -7 31 -16l-5 -81h-278z" />
    <glyph glyph-name="N" unicode="N" horiz-adv-x="817" 
d="M38 82q9 9 27 14l19 6q16 5 22.5 12t8.5 20.5t2 44.5v432q0 31 -1.5 44t-8.5 19.5t-24 12.5l-20 7q-15 5 -24 14l5 80h252l280 -470v291q0 31 -2 44.5t-8.5 20.5t-21.5 12l-15 5q-20 7 -31 16l5 81h278l6 -82q-9 -9 -27 -14l-19 -6q-16 -5 -22.5 -12t-8.5 -20.5t-2 -44.5
v-609h-153l-306 508v-329q0 -31 2 -44.5t8.5 -20.5t21.5 -12l15 -5q20 -7 31 -16l-5 -81h-278z" />
    <glyph glyph-name="Nacute" unicode="&#x143;" horiz-adv-x="817" 
d="M38 82q9 9 27 14l19 6q16 5 22.5 12t8.5 20.5t2 44.5v432q0 31 -1.5 44t-8.5 19.5t-24 12.5l-20 7q-15 5 -24 14l5 80h252l280 -470v291q0 31 -2 44.5t-8.5 20.5t-21.5 12l-15 5q-20 7 -31 16l5 81h278l6 -82q-9 -9 -27 -14l-19 -6q-16 -5 -22.5 -12t-8.5 -20.5t-2 -44.5
v-609h-153l-306 508v-329q0 -31 2 -44.5t8.5 -20.5t21.5 -12l15 -5q20 -7 31 -16l-5 -81h-278zM268 926l243 141l72 -137l-265 -100z" />
    <glyph glyph-name="Ncaron" unicode="&#x147;" horiz-adv-x="817" 
d="M38 82q9 9 27 14l19 6q16 5 22.5 12t8.5 20.5t2 44.5v432q0 31 -1.5 44t-8.5 19.5t-24 12.5l-20 7q-15 5 -24 14l5 80h252l280 -470v291q0 31 -2 44.5t-8.5 20.5t-21.5 12l-15 5q-20 7 -31 16l5 81h278l6 -82q-9 -9 -27 -14l-19 -6q-16 -5 -22.5 -12t-8.5 -20.5t-2 -44.5
v-609h-153l-306 508v-329q0 -31 2 -44.5t8.5 -20.5t21.5 -12l15 -5q20 -7 31 -16l-5 -81h-278zM215 973l66 74l133 -95l132 95l66 -73l-131 -128h-136z" />
    <glyph glyph-name="Ncommaaccent" unicode="&#x145;" horiz-adv-x="817" 
d="M38 82q9 9 27 14l19 6q16 5 22.5 12t8.5 20.5t2 44.5v432q0 31 -1.5 44t-8.5 19.5t-24 12.5l-20 7q-15 5 -24 14l5 80h252l280 -470v291q0 31 -2 44.5t-8.5 20.5t-21.5 12l-15 5q-20 7 -31 16l5 81h278l6 -82q-9 -9 -27 -14l-19 -6q-16 -5 -22.5 -12t-8.5 -20.5t-2 -44.5
v-609h-153l-306 508v-329q0 -31 2 -44.5t8.5 -20.5t21.5 -12l15 -5q20 -7 31 -16l-5 -81h-278zM326 -303q26 19 42 39.5t16 38.5q0 7 -4 13t-12 13q-13 12 -20 23t-7 31q0 31 23 51t60 20q42 0 69.5 -30t27.5 -78q0 -42 -31.5 -92.5t-84.5 -85.5z" />
    <glyph glyph-name="Eng" unicode="&#x14a;" horiz-adv-x="817" 
d="M787 706q-9 -9 -27 -14l-19 -6q-16 -5 -22.5 -12t-8.5 -20.5t-2 -44.5v-596q0 -125 -47.5 -181t-137.5 -56q-22 0 -53 2.5t-51 6.5v118q27 -8 73 -8q42 0 63 17.5t21 57.5v7l-327 533v-331q0 -31 2 -44.5t8.5 -20.5t21.5 -12l15 -5q20 -7 31 -16l-5 -81h-278l-6 82
q9 9 27 14l19 6q16 5 22.5 12t8.5 20.5t2 44.5v432q0 31 -1.5 44t-8.5 19.5t-24 12.5l-20 7q-15 5 -24 14l5 80h252l280 -466v287q0 31 -2 44.5t-8.5 20.5t-21.5 12l-15 5q-20 7 -31 16l5 81h278z" />
    <glyph glyph-name="Ntilde" unicode="&#xd1;" horiz-adv-x="817" 
d="M38 82q9 9 27 14l19 6q16 5 22.5 12t8.5 20.5t2 44.5v432q0 31 -1.5 44t-8.5 19.5t-24 12.5l-20 7q-15 5 -24 14l5 80h252l280 -470v291q0 31 -2 44.5t-8.5 20.5t-21.5 12l-15 5q-20 7 -31 16l5 81h278l6 -82q-9 -9 -27 -14l-19 -6q-16 -5 -22.5 -12t-8.5 -20.5t-2 -44.5
v-609h-153l-306 508v-329q0 -31 2 -44.5t8.5 -20.5t21.5 -12l15 -5q20 -7 31 -16l-5 -81h-278zM191 893q21 57 61 89.5t90 32.5q24 0 43 -7.5t41 -20.5q20 -11 32.5 -16t26.5 -5q18 0 30 12.5t21 38.5l92 -54q-12 -49 -49 -87.5t-87 -38.5q-27 0 -45 7t-42 20
q-19 11 -31.5 16t-27.5 5q-23 0 -36.5 -12.5t-23.5 -36.5z" />
    <glyph glyph-name="O" unicode="O" horiz-adv-x="759" 
d="M129 89q-91 101 -91 300q0 133 43 225.5t120 139t179 46.5q101 0 178 -46t120 -137t43 -223q0 -133 -42.5 -224t-119.5 -136.5t-180 -45.5q-159 0 -250 101zM482 179q34 76 34 216q0 141 -33.5 215.5t-100.5 74.5q-69 0 -104 -73.5t-35 -213.5q0 -144 34.5 -219.5
t104.5 -75.5q66 0 100 76z" />
    <glyph glyph-name="Oacute" unicode="&#xd3;" horiz-adv-x="759" 
d="M129 89q-91 101 -91 300q0 133 43 225.5t120 139t179 46.5q101 0 178 -46t120 -137t43 -223q0 -133 -42.5 -224t-119.5 -136.5t-180 -45.5q-159 0 -250 101zM482 179q34 76 34 216q0 141 -33.5 215.5t-100.5 74.5q-69 0 -104 -73.5t-35 -213.5q0 -144 34.5 -219.5
t104.5 -75.5q66 0 100 76zM234 926l243 141l72 -137l-265 -100z" />
    <glyph glyph-name="Obreve" unicode="&#x14e;" horiz-adv-x="759" 
d="M129 89q-91 101 -91 300q0 133 43 225.5t120 139t179 46.5q101 0 178 -46t120 -137t43 -223q0 -133 -42.5 -224t-119.5 -136.5t-180 -45.5q-159 0 -250 101zM482 179q34 76 34 216q0 141 -33.5 215.5t-100.5 74.5q-69 0 -104 -73.5t-35 -213.5q0 -144 34.5 -219.5
t104.5 -75.5q66 0 100 76zM244 897.5q-49 47.5 -54 120.5h125q7 -28 24 -42t42 -14q51 0 64 56h125q-5 -72 -54.5 -120t-135.5 -48q-87 0 -136 47.5z" />
    <glyph glyph-name="Ocircumflex" unicode="&#xd4;" horiz-adv-x="759" 
d="M129 89q-91 101 -91 300q0 133 43 225.5t120 139t179 46.5q101 0 178 -46t120 -137t43 -223q0 -133 -42.5 -224t-119.5 -136.5t-180 -45.5q-159 0 -250 101zM482 179q34 76 34 216q0 141 -33.5 215.5t-100.5 74.5q-69 0 -104 -73.5t-35 -213.5q0 -144 34.5 -219.5
t104.5 -75.5q66 0 100 76zM181 902l131 133h136l130 -132l-66 -74l-133 100l-132 -100z" />
    <glyph glyph-name="Odieresis" unicode="&#xd6;" horiz-adv-x="759" 
d="M129 89q-91 101 -91 300q0 133 43 225.5t120 139t179 46.5q101 0 178 -46t120 -137t43 -223q0 -133 -42.5 -224t-119.5 -136.5t-180 -45.5q-159 0 -250 101zM482 179q34 76 34 216q0 141 -33.5 215.5t-100.5 74.5q-69 0 -104 -73.5t-35 -213.5q0 -144 34.5 -219.5
t104.5 -75.5q66 0 100 76zM205.5 871.5q-25.5 23.5 -25.5 59.5t25.5 59.5t62.5 23.5t62 -23.5t25 -59.5t-25 -59.5t-62 -23.5t-62.5 23.5zM430.5 871.5q-25.5 23.5 -25.5 59.5t25.5 59.5t62.5 23.5t62 -23.5t25 -59.5t-25 -59.5t-62 -23.5t-62.5 23.5z" />
    <glyph glyph-name="Ograve" unicode="&#xd2;" horiz-adv-x="759" 
d="M129 89q-91 101 -91 300q0 133 43 225.5t120 139t179 46.5q101 0 178 -46t120 -137t43 -223q0 -133 -42.5 -224t-119.5 -136.5t-180 -45.5q-159 0 -250 101zM482 179q34 76 34 216q0 141 -33.5 215.5t-100.5 74.5q-69 0 -104 -73.5t-35 -213.5q0 -144 34.5 -219.5
t104.5 -75.5q66 0 100 76zM203 930l72 137l243 -141l-50 -96z" />
    <glyph glyph-name="Ohungarumlaut" unicode="&#x150;" horiz-adv-x="759" 
d="M129 89q-91 101 -91 300q0 133 43 225.5t120 139t179 46.5q101 0 178 -46t120 -137t43 -223q0 -133 -42.5 -224t-119.5 -136.5t-180 -45.5q-159 0 -250 101zM482 179q34 76 34 216q0 141 -33.5 215.5t-100.5 74.5q-69 0 -104 -73.5t-35 -213.5q0 -144 34.5 -219.5
t104.5 -75.5q66 0 100 76zM150 911l179 160l94 -104l-200 -143zM417 911l179 160l94 -104l-200 -143z" />
    <glyph glyph-name="Omacron" unicode="&#x14c;" horiz-adv-x="759" 
d="M129 89q-91 101 -91 300q0 133 43 225.5t120 139t179 46.5q101 0 178 -46t120 -137t43 -223q0 -133 -42.5 -224t-119.5 -136.5t-180 -45.5q-159 0 -250 101zM482 179q34 76 34 216q0 141 -33.5 215.5t-100.5 74.5q-69 0 -104 -73.5t-35 -213.5q0 -144 34.5 -219.5
t104.5 -75.5q66 0 100 76zM185 992h390v-122h-390v122z" />
    <glyph glyph-name="Oslash" unicode="&#xd8;" horiz-adv-x="759" 
d="M694.5 574.5q26.5 -78.5 26.5 -180.5q0 -133 -42.5 -224t-119.5 -136.5t-180 -45.5q-81 0 -146 27l-58 -105l-96 61l60 107q-101 104 -101 311q0 133 43 225.5t120 139t179 46.5q80 0 146 -29l58 103l96 -61l-61 -108q49 -52 75.5 -130.5zM251 278l207 371q-30 36 -76 36
q-69 0 -104 -73.5t-35 -213.5q0 -64 8 -120zM482 179q34 76 34 216q0 65 -7 113l-206 -369q32 -36 79 -36q66 0 100 76z" />
    <glyph glyph-name="Oslashacute" unicode="&#x1fe;" horiz-adv-x="759" 
d="M694.5 574.5q26.5 -78.5 26.5 -180.5q0 -133 -42.5 -224t-119.5 -136.5t-180 -45.5q-81 0 -146 27l-58 -105l-96 61l60 107q-101 104 -101 311q0 133 43 225.5t120 139t179 46.5q80 0 146 -29l58 103l96 -61l-61 -108q49 -52 75.5 -130.5zM251 278l207 371q-30 36 -76 36
q-69 0 -104 -73.5t-35 -213.5q0 -64 8 -120zM482 179q34 76 34 216q0 65 -7 113l-206 -369q32 -36 79 -36q66 0 100 76zM208 926l243 141l72 -137l-265 -100z" />
    <glyph glyph-name="Otilde" unicode="&#xd5;" horiz-adv-x="759" 
d="M129 89q-91 101 -91 300q0 133 43 225.5t120 139t179 46.5q101 0 178 -46t120 -137t43 -223q0 -133 -42.5 -224t-119.5 -136.5t-180 -45.5q-159 0 -250 101zM482 179q34 76 34 216q0 141 -33.5 215.5t-100.5 74.5q-69 0 -104 -73.5t-35 -213.5q0 -144 34.5 -219.5
t104.5 -75.5q66 0 100 76zM157 893q21 57 61 89.5t90 32.5q24 0 43 -7.5t41 -20.5q20 -11 32.5 -16t26.5 -5q18 0 30 12.5t21 38.5l92 -54q-12 -49 -49 -87.5t-87 -38.5q-27 0 -45 7t-42 20q-19 11 -31.5 16t-27.5 5q-23 0 -36.5 -12.5t-23.5 -36.5z" />
    <glyph glyph-name="OE" unicode="&#x152;" horiz-adv-x="1009" 
d="M170.5 34q-63.5 46 -98 136t-34.5 219q0 128 38 221t103 141.5t146 48.5q54 0 96.5 -19.5t68.5 -52.5v60h463v-225h-87q-10 22 -21 51l-14 39q-4 13 -10 16t-23 3h-110q-14 0 -14 -14v-187q0 -14 14 -14h41q18 0 28 27l6 15q15 35 14 33l65 2v-263l-65 -4q-5 6 -15 32
l-5 12q-13 30 -28 30h-41q-14 0 -14 -14v-197q0 -14 14 -14h123q17 0 23 3t10 16l16 45q12 35 19 51h87v-231h-475v78q-21 -39 -67.5 -64.5t-103.5 -25.5q-86 0 -149.5 46zM479 172v454q-16 28 -40.5 44t-55.5 16q-66 0 -103 -74t-37 -214q0 -150 33 -223t104 -73
q65 0 99 70z" />
    <glyph glyph-name="P" unicode="P" horiz-adv-x="702" 
d="M38 82q9 9 27 14l19 6q16 5 22.5 12t8.5 20.5t2 44.5v431q0 31 -2 44t-8.5 20t-21.5 12l-15 5q-20 7 -31 16l5 81h321q141 0 220 -62t79 -180q0 -123 -77 -190.5t-215 -67.5h-45q-15 0 -15 -15v-95q0 -31 2 -44t8.5 -20t21.5 -12l15 -5q20 -7 31 -16l-5 -81h-341z
M357 404q48 0 75 35t27 103q0 66 -26.5 98t-73.5 32h-33q-14 0 -14 -15v-238q0 -15 15 -15h30z" />
    <glyph glyph-name="Thorn" unicode="&#xde;" horiz-adv-x="679" 
d="M44 82q9 9 27 14l19 6q16 5 22.5 12t8.5 20.5t2 44.5v431q0 31 -2 44t-8.5 20t-21.5 12l-15 5q-20 7 -31 16l5 81h341l6 -82q-9 -9 -27 -14l-19 -6q-18 -5 -25.5 -14.5t-7.5 -27.5v-12q0 -10 11 -10h33q140 0 212.5 -50t72.5 -158q0 -110 -77 -166.5t-205 -56.5h-33
q-14 0 -14 -11v-40q0 -16 6 -23.5t26 -14.5l15 -5q20 -7 31 -16l-5 -81h-341zM343 301q47 0 73 28t26 81q0 102 -94 102h-16q-14 0 -14 -15v-181q0 -15 15 -15h10z" />
    <glyph glyph-name="Q" unicode="Q" horiz-adv-x="759" 
d="M458.5 -56q28.5 -14 83.5 -14h73v-118q0 -25 -13.5 -34.5t-44.5 -9.5q-136 0 -198.5 54t-63.5 174q-122 25 -189.5 123.5t-67.5 269.5q0 133 43 225.5t120 139t179 46.5q101 0 178 -46t120 -137t43 -223q0 -183 -79 -285.5t-216 -117.5q4 -33 32.5 -47zM278 611.5
q-35 -73.5 -35 -213.5q0 -144 34.5 -219.5t104.5 -75.5q66 0 100 76t34 216q0 141 -33.5 215.5t-100.5 74.5q-69 0 -104 -73.5z" />
    <glyph glyph-name="R" unicode="R" horiz-adv-x="739" 
d="M38 82q9 9 27 14l19 6q16 5 22.5 12t8.5 20.5t2 44.5v431q0 31 -2 44t-8.5 20t-21.5 12l-15 5q-20 7 -31 16l5 81h328q144 0 218 -56t74 -166q0 -74 -33.5 -124t-87.5 -81q-10 -6 -5 -17l82 -175q15 -31 31.5 -46.5t35.5 -21.5l15 -5q17 -6 30 -15l-6 -81h-225l-142 313
q-2 5 -5.5 7t-10.5 2h-19q-12 0 -12 -15v-129q0 -31 2 -44t8.5 -20t21.5 -12l15 -5q20 -7 31 -16l-5 -81h-341zM352 438q44 0 75.5 32.5t31.5 86.5q0 115 -105 115h-27q-15 0 -15 -15v-204q0 -15 14 -15h26z" />
    <glyph glyph-name="Racute" unicode="&#x154;" horiz-adv-x="739" 
d="M38 82q9 9 27 14l19 6q16 5 22.5 12t8.5 20.5t2 44.5v431q0 31 -2 44t-8.5 20t-21.5 12l-15 5q-20 7 -31 16l5 81h328q144 0 218 -56t74 -166q0 -74 -33.5 -124t-87.5 -81q-10 -6 -5 -17l82 -175q15 -31 31.5 -46.5t35.5 -21.5l15 -5q17 -6 30 -15l-6 -81h-225l-142 313
q-2 5 -5.5 7t-10.5 2h-19q-12 0 -12 -15v-129q0 -31 2 -44t8.5 -20t21.5 -12l15 -5q20 -7 31 -16l-5 -81h-341zM352 438q44 0 75.5 32.5t31.5 86.5q0 115 -105 115h-27q-15 0 -15 -15v-204q0 -15 14 -15h26zM214 926l243 141l72 -137l-265 -100z" />
    <glyph glyph-name="Rcaron" unicode="&#x158;" horiz-adv-x="739" 
d="M38 82q9 9 27 14l19 6q16 5 22.5 12t8.5 20.5t2 44.5v431q0 31 -2 44t-8.5 20t-21.5 12l-15 5q-20 7 -31 16l5 81h328q144 0 218 -56t74 -166q0 -74 -33.5 -124t-87.5 -81q-10 -6 -5 -17l82 -175q15 -31 31.5 -46.5t35.5 -21.5l15 -5q17 -6 30 -15l-6 -81h-225l-142 313
q-2 5 -5.5 7t-10.5 2h-19q-12 0 -12 -15v-129q0 -31 2 -44t8.5 -20t21.5 -12l15 -5q20 -7 31 -16l-5 -81h-341zM352 438q44 0 75.5 32.5t31.5 86.5q0 115 -105 115h-27q-15 0 -15 -15v-204q0 -15 14 -15h26zM161 973l66 74l133 -95l132 95l66 -73l-131 -128h-136z" />
    <glyph glyph-name="Rcommaaccent" unicode="&#x156;" horiz-adv-x="739" 
d="M38 82q9 9 27 14l19 6q16 5 22.5 12t8.5 20.5t2 44.5v431q0 31 -2 44t-8.5 20t-21.5 12l-15 5q-20 7 -31 16l5 81h328q144 0 218 -56t74 -166q0 -74 -33.5 -124t-87.5 -81q-10 -6 -5 -17l82 -175q15 -31 31.5 -46.5t35.5 -21.5l15 -5q17 -6 30 -15l-6 -81h-225l-142 313
q-2 5 -5.5 7t-10.5 2h-19q-12 0 -12 -15v-129q0 -31 2 -44t8.5 -20t21.5 -12l15 -5q20 -7 31 -16l-5 -81h-341zM352 438q44 0 75.5 32.5t31.5 86.5q0 115 -105 115h-27q-15 0 -15 -15v-204q0 -15 14 -15h26zM313 -303q26 19 42 39.5t16 38.5q0 7 -4 13t-12 13q-13 12 -20 23
t-7 31q0 31 23 51t60 20q42 0 69.5 -30t27.5 -78q0 -42 -31.5 -92.5t-84.5 -85.5z" />
    <glyph glyph-name="S" unicode="S" horiz-adv-x="649" 
d="M266 0q-44 12 -81 35q-5 3 -8 3q-4 0 -6 -9l-2 -29h-126v275h134l2 -32q4 -68 44.5 -104t101.5 -36q45 0 68 22.5t23 59.5q0 34 -23 59.5t-76 57.5l-110 67q-80 49 -117 100.5t-37 124.5q0 61 32 108t88.5 72.5t125.5 25.5q43 0 73.5 -8t54.5 -23q4 -3 8 -3q5 0 7 8l4 24
h126v-246h-134l-4 41q-9 92 -99 92q-39 0 -61.5 -16.5t-22.5 -45.5q0 -27 22.5 -49t86.5 -61l108 -66q78 -47 111.5 -99.5t33.5 -126.5q0 -69 -34 -122t-90.5 -82t-121.5 -29q-57 0 -101 12z" />
    <glyph glyph-name="Sacute" unicode="&#x15a;" horiz-adv-x="649" 
d="M266 0q-44 12 -81 35q-5 3 -8 3q-4 0 -6 -9l-2 -29h-126v275h134l2 -32q4 -68 44.5 -104t101.5 -36q45 0 68 22.5t23 59.5q0 34 -23 59.5t-76 57.5l-110 67q-80 49 -117 100.5t-37 124.5q0 61 32 108t88.5 72.5t125.5 25.5q43 0 73.5 -8t54.5 -23q4 -3 8 -3q5 0 7 8l4 24
h126v-246h-134l-4 41q-9 92 -99 92q-39 0 -61.5 -16.5t-22.5 -45.5q0 -27 22.5 -49t86.5 -61l108 -66q78 -47 111.5 -99.5t33.5 -126.5q0 -69 -34 -122t-90.5 -82t-121.5 -29q-57 0 -101 12zM177 926l243 141l72 -137l-265 -100z" />
    <glyph glyph-name="Scaron" unicode="&#x160;" horiz-adv-x="649" 
d="M266 0q-44 12 -81 35q-5 3 -8 3q-4 0 -6 -9l-2 -29h-126v275h134l2 -32q4 -68 44.5 -104t101.5 -36q45 0 68 22.5t23 59.5q0 34 -23 59.5t-76 57.5l-110 67q-80 49 -117 100.5t-37 124.5q0 61 32 108t88.5 72.5t125.5 25.5q43 0 73.5 -8t54.5 -23q4 -3 8 -3q5 0 7 8l4 24
h126v-246h-134l-4 41q-9 92 -99 92q-39 0 -61.5 -16.5t-22.5 -45.5q0 -27 22.5 -49t86.5 -61l108 -66q78 -47 111.5 -99.5t33.5 -126.5q0 -69 -34 -122t-90.5 -82t-121.5 -29q-57 0 -101 12zM124 973l66 74l133 -95l132 95l66 -73l-131 -128h-136z" />
    <glyph glyph-name="Scedilla" unicode="&#x15e;" horiz-adv-x="649" 
d="M266 0q-44 12 -81 35q-5 3 -8 3q-4 0 -6 -9l-2 -29h-126v275h134l2 -32q4 -68 44.5 -104t101.5 -36q45 0 68 22.5t23 59.5q0 34 -23 59.5t-76 57.5l-110 67q-80 49 -117 100.5t-37 124.5q0 61 32 108t88.5 72.5t125.5 25.5q43 0 73.5 -8t54.5 -23q4 -3 8 -3q5 0 7 8l4 24
h126v-246h-134l-4 41q-9 92 -99 92q-39 0 -61.5 -16.5t-22.5 -45.5q0 -27 22.5 -49t86.5 -61l108 -66q78 -47 111.5 -99.5t33.5 -126.5q0 -69 -34 -122t-90.5 -82t-121.5 -29q-57 0 -101 12zM267 -217.5q-35 9.5 -58 24.5l28 76q39 -26 73 -26q16 0 25 7.5t9 21.5
q0 36 -73 46l32 70h85l-12 -27q47 -11 74.5 -38.5t27.5 -66.5q0 -41 -35 -69t-101 -28q-40 0 -75 9.5z" />
    <glyph glyph-name="Scircumflex" unicode="&#x15c;" horiz-adv-x="649" 
d="M266 0q-44 12 -81 35q-5 3 -8 3q-4 0 -6 -9l-2 -29h-126v275h134l2 -32q4 -68 44.5 -104t101.5 -36q45 0 68 22.5t23 59.5q0 34 -23 59.5t-76 57.5l-110 67q-80 49 -117 100.5t-37 124.5q0 61 32 108t88.5 72.5t125.5 25.5q43 0 73.5 -8t54.5 -23q4 -3 8 -3q5 0 7 8l4 24
h126v-246h-134l-4 41q-9 92 -99 92q-39 0 -61.5 -16.5t-22.5 -45.5q0 -27 22.5 -49t86.5 -61l108 -66q78 -47 111.5 -99.5t33.5 -126.5q0 -69 -34 -122t-90.5 -82t-121.5 -29q-57 0 -101 12zM124 902l131 133h136l130 -132l-66 -74l-133 100l-132 -100z" />
    <glyph glyph-name="Scommaaccent" unicode="&#x218;" horiz-adv-x="649" 
d="M266 0q-44 12 -81 35q-5 3 -8 3q-4 0 -6 -9l-2 -29h-126v275h134l2 -32q4 -68 44.5 -104t101.5 -36q45 0 68 22.5t23 59.5q0 34 -23 59.5t-76 57.5l-110 67q-80 49 -117 100.5t-37 124.5q0 61 32 108t88.5 72.5t125.5 25.5q43 0 73.5 -8t54.5 -23q4 -3 8 -3q5 0 7 8l4 24
h126v-246h-134l-4 41q-9 92 -99 92q-39 0 -61.5 -16.5t-22.5 -45.5q0 -27 22.5 -49t86.5 -61l108 -66q78 -47 111.5 -99.5t33.5 -126.5q0 -69 -34 -122t-90.5 -82t-121.5 -29q-57 0 -101 12zM247 -303q26 19 42 39.5t16 38.5q0 7 -4 13t-12 13q-13 12 -20 23t-7 31
q0 31 23 51t60 20q42 0 69.5 -30t27.5 -78q0 -42 -31.5 -92.5t-84.5 -85.5z" />
    <glyph glyph-name="uni1E9E" unicode="&#x1e9e;" horiz-adv-x="795" 
d="M526.5 -1q-34.5 11 -58.5 30q-4 3 -7 3q-5 0 -7 -8l-3 -24h-98v218h116l3 -37q3 -40 21 -59.5t47 -19.5q26 0 39.5 15.5t13.5 40.5q0 30 -23 51.5t-86 56.5q-59 33 -89.5 64t-30.5 82q0 40 18 64.5t52 50.5q30 23 45 42t15 48q0 30 -21 49t-58 19q-55 0 -82 -39.5
t-27 -103.5v-542h-268l-6 82q8 8 27 14l19 6q19 6 26 16.5t7 40.5v368q0 132 80 202.5t227 70.5q78 0 140.5 -24.5t97.5 -66t35 -89.5q0 -47 -23.5 -74.5t-64.5 -55.5q-22 -15 -33 -25.5t-11 -22.5q0 -16 13.5 -27t62.5 -38q63 -36 104 -84t41 -118q0 -52 -24 -94.5
t-65 -67.5t-90 -25q-40 0 -74.5 11z" />
    <glyph glyph-name="T" unicode="T" horiz-adv-x="728" 
d="M187 82q9 9 27 14l19 6q16 5 22.5 12t8.5 20.5t2 44.5v479q0 14 -14 14h-63q-16 0 -21.5 -4t-10.5 -17l-15 -43q-14 -41 -22 -55h-84v235h656v-235h-85q-10 21 -21 55l-16 45q-4 13 -10 16t-23 3h-62q-14 0 -14 -14v-480q0 -31 2 -44t8.5 -20t21.5 -12l15 -5
q20 -7 31 -16l-5 -81h-341z" />
    <glyph glyph-name="Tbar" unicode="&#x166;" horiz-adv-x="728" 
d="M692 788v-235h-85q-10 21 -21 55l-16 45q-4 13 -10 16t-23 3h-62q-14 0 -14 -14v-205h111v-122h-111v-153q0 -31 2 -44t8.5 -20t21.5 -12l15 -5q20 -7 31 -16l-5 -81h-341l-6 82q9 9 27 14l19 6q16 5 22.5 12t8.5 20.5t2 44.5v152h-111v122h111v205q0 14 -14 14h-63
q-16 0 -21.5 -4t-10.5 -17l-15 -43q-14 -41 -22 -55h-84v235h656z" />
    <glyph glyph-name="Tcaron" unicode="&#x164;" horiz-adv-x="728" 
d="M187 82q9 9 27 14l19 6q16 5 22.5 12t8.5 20.5t2 44.5v479q0 14 -14 14h-63q-16 0 -21.5 -4t-10.5 -17l-15 -43q-14 -41 -22 -55h-84v235h656v-235h-85q-10 21 -21 55l-16 45q-4 13 -10 16t-23 3h-62q-14 0 -14 -14v-480q0 -31 2 -44t8.5 -20t21.5 -12l15 -5
q20 -7 31 -16l-5 -81h-341zM170 973l66 74l133 -95l132 95l66 -73l-131 -128h-136z" />
    <glyph glyph-name="uni0162" unicode="&#x162;" horiz-adv-x="728" 
d="M187 82q9 9 27 14l19 6q16 5 22.5 12t8.5 20.5t2 44.5v479q0 14 -14 14h-63q-16 0 -21.5 -4t-10.5 -17l-15 -43q-14 -41 -22 -55h-84v235h656v-235h-85q-10 21 -21 55l-16 45q-4 13 -10 16t-23 3h-62q-14 0 -14 -14v-480q0 -31 2 -44t8.5 -20t21.5 -12l15 -5
q20 -7 31 -16l-5 -81h-341zM267 -303q26 19 42 39.5t16 38.5q0 7 -4 13t-12 13q-13 12 -20 23t-7 31q0 31 23 51t60 20q42 0 69.5 -30t27.5 -78q0 -42 -31.5 -92.5t-84.5 -85.5z" />
    <glyph glyph-name="uni021A" unicode="&#x21a;" horiz-adv-x="728" 
d="M187 82q9 9 27 14l19 6q16 5 22.5 12t8.5 20.5t2 44.5v479q0 14 -14 14h-63q-16 0 -21.5 -4t-10.5 -17l-15 -43q-14 -41 -22 -55h-84v235h656v-235h-85q-10 21 -21 55l-16 45q-4 13 -10 16t-23 3h-62q-14 0 -14 -14v-480q0 -31 2 -44t8.5 -20t21.5 -12l15 -5
q20 -7 31 -16l-5 -81h-341zM267 -303q26 19 42 39.5t16 38.5q0 7 -4 13t-12 13q-13 12 -20 23t-7 31q0 31 23 51t60 20q42 0 69.5 -30t27.5 -78q0 -42 -31.5 -92.5t-84.5 -85.5z" />
    <glyph glyph-name="U" unicode="U" horiz-adv-x="782" 
d="M175.5 54.5q-73.5 66.5 -73.5 196.5v359q0 31 -2 44t-8.5 20t-21.5 12l-15 5q-20 7 -31 16l5 81h341l6 -82q-9 -9 -27 -14l-19 -6q-16 -5 -22.5 -12t-8.5 -20.5t-2 -44.5v-344q0 -80 31 -117t98 -37q59 0 90 40t31 118v340q0 31 -2 44.5t-8.5 20.5t-21.5 12l-15 5
q-20 7 -31 16l5 81h278l6 -82q-9 -9 -27 -14l-19 -6q-16 -5 -22.5 -12t-8.5 -20.5t-2 -44.5v-347q0 -132 -70.5 -203t-205.5 -71q-154 0 -227.5 66.5z" />
    <glyph glyph-name="Uacute" unicode="&#xda;" horiz-adv-x="782" 
d="M175.5 54.5q-73.5 66.5 -73.5 196.5v359q0 31 -2 44t-8.5 20t-21.5 12l-15 5q-20 7 -31 16l5 81h341l6 -82q-9 -9 -27 -14l-19 -6q-16 -5 -22.5 -12t-8.5 -20.5t-2 -44.5v-344q0 -80 31 -117t98 -37q59 0 90 40t31 118v340q0 31 -2 44.5t-8.5 20.5t-21.5 12l-15 5
q-20 7 -31 16l5 81h278l6 -82q-9 -9 -27 -14l-19 -6q-16 -5 -22.5 -12t-8.5 -20.5t-2 -44.5v-347q0 -132 -70.5 -203t-205.5 -71q-154 0 -227.5 66.5zM269 926l243 141l72 -137l-265 -100z" />
    <glyph glyph-name="Ubreve" unicode="&#x16c;" horiz-adv-x="782" 
d="M175.5 54.5q-73.5 66.5 -73.5 196.5v359q0 31 -2 44t-8.5 20t-21.5 12l-15 5q-20 7 -31 16l5 81h341l6 -82q-9 -9 -27 -14l-19 -6q-16 -5 -22.5 -12t-8.5 -20.5t-2 -44.5v-344q0 -80 31 -117t98 -37q59 0 90 40t31 118v340q0 31 -2 44.5t-8.5 20.5t-21.5 12l-15 5
q-20 7 -31 16l5 81h278l6 -82q-9 -9 -27 -14l-19 -6q-16 -5 -22.5 -12t-8.5 -20.5t-2 -44.5v-347q0 -132 -70.5 -203t-205.5 -71q-154 0 -227.5 66.5zM279 897.5q-49 47.5 -54 120.5h125q7 -28 24 -42t42 -14q51 0 64 56h125q-5 -72 -54.5 -120t-135.5 -48q-87 0 -136 47.5z
" />
    <glyph glyph-name="Ucircumflex" unicode="&#xdb;" horiz-adv-x="782" 
d="M175.5 54.5q-73.5 66.5 -73.5 196.5v359q0 31 -2 44t-8.5 20t-21.5 12l-15 5q-20 7 -31 16l5 81h341l6 -82q-9 -9 -27 -14l-19 -6q-16 -5 -22.5 -12t-8.5 -20.5t-2 -44.5v-344q0 -80 31 -117t98 -37q59 0 90 40t31 118v340q0 31 -2 44.5t-8.5 20.5t-21.5 12l-15 5
q-20 7 -31 16l5 81h278l6 -82q-9 -9 -27 -14l-19 -6q-16 -5 -22.5 -12t-8.5 -20.5t-2 -44.5v-347q0 -132 -70.5 -203t-205.5 -71q-154 0 -227.5 66.5zM216 902l131 133h136l130 -132l-66 -74l-133 100l-132 -100z" />
    <glyph glyph-name="Udieresis" unicode="&#xdc;" horiz-adv-x="782" 
d="M175.5 54.5q-73.5 66.5 -73.5 196.5v359q0 31 -2 44t-8.5 20t-21.5 12l-15 5q-20 7 -31 16l5 81h341l6 -82q-9 -9 -27 -14l-19 -6q-16 -5 -22.5 -12t-8.5 -20.5t-2 -44.5v-344q0 -80 31 -117t98 -37q59 0 90 40t31 118v340q0 31 -2 44.5t-8.5 20.5t-21.5 12l-15 5
q-20 7 -31 16l5 81h278l6 -82q-9 -9 -27 -14l-19 -6q-16 -5 -22.5 -12t-8.5 -20.5t-2 -44.5v-347q0 -132 -70.5 -203t-205.5 -71q-154 0 -227.5 66.5zM240.5 871.5q-25.5 23.5 -25.5 59.5t25.5 59.5t62.5 23.5t62 -23.5t25 -59.5t-25 -59.5t-62 -23.5t-62.5 23.5z
M465.5 871.5q-25.5 23.5 -25.5 59.5t25.5 59.5t62.5 23.5t62 -23.5t25 -59.5t-25 -59.5t-62 -23.5t-62.5 23.5z" />
    <glyph glyph-name="Ugrave" unicode="&#xd9;" horiz-adv-x="782" 
d="M175.5 54.5q-73.5 66.5 -73.5 196.5v359q0 31 -2 44t-8.5 20t-21.5 12l-15 5q-20 7 -31 16l5 81h341l6 -82q-9 -9 -27 -14l-19 -6q-16 -5 -22.5 -12t-8.5 -20.5t-2 -44.5v-344q0 -80 31 -117t98 -37q59 0 90 40t31 118v340q0 31 -2 44.5t-8.5 20.5t-21.5 12l-15 5
q-20 7 -31 16l5 81h278l6 -82q-9 -9 -27 -14l-19 -6q-16 -5 -22.5 -12t-8.5 -20.5t-2 -44.5v-347q0 -132 -70.5 -203t-205.5 -71q-154 0 -227.5 66.5zM238 930l72 137l243 -141l-50 -96z" />
    <glyph glyph-name="Uhungarumlaut" unicode="&#x170;" horiz-adv-x="782" 
d="M175.5 54.5q-73.5 66.5 -73.5 196.5v359q0 31 -2 44t-8.5 20t-21.5 12l-15 5q-20 7 -31 16l5 81h341l6 -82q-9 -9 -27 -14l-19 -6q-16 -5 -22.5 -12t-8.5 -20.5t-2 -44.5v-344q0 -80 31 -117t98 -37q59 0 90 40t31 118v340q0 31 -2 44.5t-8.5 20.5t-21.5 12l-15 5
q-20 7 -31 16l5 81h278l6 -82q-9 -9 -27 -14l-19 -6q-16 -5 -22.5 -12t-8.5 -20.5t-2 -44.5v-347q0 -132 -70.5 -203t-205.5 -71q-154 0 -227.5 66.5zM185 911l179 160l94 -104l-200 -143zM452 911l179 160l94 -104l-200 -143z" />
    <glyph glyph-name="Umacron" unicode="&#x16a;" horiz-adv-x="782" 
d="M175.5 54.5q-73.5 66.5 -73.5 196.5v359q0 31 -2 44t-8.5 20t-21.5 12l-15 5q-20 7 -31 16l5 81h341l6 -82q-9 -9 -27 -14l-19 -6q-16 -5 -22.5 -12t-8.5 -20.5t-2 -44.5v-344q0 -80 31 -117t98 -37q59 0 90 40t31 118v340q0 31 -2 44.5t-8.5 20.5t-21.5 12l-15 5
q-20 7 -31 16l5 81h278l6 -82q-9 -9 -27 -14l-19 -6q-16 -5 -22.5 -12t-8.5 -20.5t-2 -44.5v-347q0 -132 -70.5 -203t-205.5 -71q-154 0 -227.5 66.5zM220 992h390v-122h-390v122z" />
    <glyph glyph-name="Uogonek" unicode="&#x172;" horiz-adv-x="782" 
d="M758 706q-9 -9 -27 -14l-19 -6q-16 -5 -22.5 -12t-8.5 -20.5t-2 -44.5v-347q0 -80 -24.5 -133t-83.5 -102q-41 -34 -59.5 -60.5t-18.5 -50.5q0 -16 9 -26t24 -10q29 0 61 32l49 -68q-26 -28 -63.5 -44.5t-82.5 -16.5q-65 0 -101.5 25.5t-36.5 74.5q0 63 65 105h-14
q-154 0 -227.5 66.5t-73.5 196.5v359q0 31 -2 44t-8.5 20t-21.5 12l-15 5q-20 7 -31 16l5 81h341l6 -82q-9 -9 -27 -14l-19 -6q-16 -5 -22.5 -12t-8.5 -20.5t-2 -44.5v-344q0 -80 31 -117t98 -37q59 0 90 40t31 118v340q0 31 -2 44.5t-8.5 20.5t-21.5 12l-15 5q-20 7 -31 16
l5 81h278z" />
    <glyph glyph-name="Uring" unicode="&#x16e;" horiz-adv-x="782" 
d="M175.5 54.5q-73.5 66.5 -73.5 196.5v359q0 31 -2 44t-8.5 20t-21.5 12l-15 5q-20 7 -31 16l5 81h341l6 -82q-9 -9 -27 -14l-19 -6q-16 -5 -22.5 -12t-8.5 -20.5t-2 -44.5v-344q0 -80 31 -117t98 -37q59 0 90 40t31 118v340q0 31 -2 44.5t-8.5 20.5t-21.5 12l-15 5
q-20 7 -31 16l5 81h278l6 -82q-9 -9 -27 -14l-19 -6q-16 -5 -22.5 -12t-8.5 -20.5t-2 -44.5v-347q0 -132 -70.5 -203t-205.5 -71q-154 0 -227.5 66.5zM317.5 860q-35.5 28 -35.5 75q0 48 36 76t98 28q60 0 96.5 -28.5t36.5 -74.5q0 -48 -36.5 -76t-98.5 -28q-61 0 -96.5 28z
M443.5 909.5q11.5 10.5 11.5 26.5q0 17 -11.5 27t-28.5 10t-28 -10t-11 -27q0 -16 11.5 -26.5t28.5 -10.5q16 0 27.5 10.5z" />
    <glyph glyph-name="Utilde" unicode="&#x168;" horiz-adv-x="782" 
d="M175.5 54.5q-73.5 66.5 -73.5 196.5v359q0 31 -2 44t-8.5 20t-21.5 12l-15 5q-20 7 -31 16l5 81h341l6 -82q-9 -9 -27 -14l-19 -6q-16 -5 -22.5 -12t-8.5 -20.5t-2 -44.5v-344q0 -80 31 -117t98 -37q59 0 90 40t31 118v340q0 31 -2 44.5t-8.5 20.5t-21.5 12l-15 5
q-20 7 -31 16l5 81h278l6 -82q-9 -9 -27 -14l-19 -6q-16 -5 -22.5 -12t-8.5 -20.5t-2 -44.5v-347q0 -132 -70.5 -203t-205.5 -71q-154 0 -227.5 66.5zM192 893q21 57 61 89.5t90 32.5q24 0 43 -7.5t41 -20.5q20 -11 32.5 -16t26.5 -5q18 0 30 12.5t21 38.5l92 -54
q-12 -49 -49 -87.5t-87 -38.5q-27 0 -45 7t-42 20q-19 11 -31.5 16t-27.5 5q-23 0 -36.5 -12.5t-23.5 -36.5z" />
    <glyph glyph-name="V" unicode="V" horiz-adv-x="777" 
d="M766 705q-7 -6 -29 -13l-15 -5q-18 -6 -28.5 -20t-23.5 -50l-197 -617h-167l-197 604q-14 44 -24 59.5t-29 21.5l-15 5q-24 9 -33 16l6 82h334l9 -83q-7 -7 -27 -13l-13 -4q-17 -4 -17 -25q0 -13 10 -48l111 -360l113 361q8 24 8 41q0 14 -5.5 20.5t-16.5 9.5l-17 5
q-23 7 -33 15l4 81h285z" />
    <glyph glyph-name="W" unicode="W" horiz-adv-x="1015" 
d="M1004 705q-7 -6 -29 -13l-15 -5q-18 -6 -27.5 -19.5t-18.5 -46.5l-145 -621h-167l-94 421l-104 -421h-167l-139 614q-9 38 -18 51.5t-25 19.5l-14 5q-24 9 -33 16l6 82h334l9 -83q-7 -7 -27 -13l-13 -4q-14 -5 -20.5 -13.5t-6.5 -27.5q0 -6 4 -34l63 -317l110 492h147
l100 -510l65 316q8 38 8 54q0 18 -7 26.5t-22 12.5l-17 5q-23 7 -33 15l4 81h285z" />
    <glyph glyph-name="Wacute" unicode="&#x1e82;" horiz-adv-x="1015" 
d="M1004 705q-7 -6 -29 -13l-15 -5q-18 -6 -27.5 -19.5t-18.5 -46.5l-145 -621h-167l-94 421l-104 -421h-167l-139 614q-9 38 -18 51.5t-25 19.5l-14 5q-24 9 -33 16l6 82h334l9 -83q-7 -7 -27 -13l-13 -4q-14 -5 -20.5 -13.5t-6.5 -27.5q0 -6 4 -34l63 -317l110 492h147
l100 -510l65 316q8 38 8 54q0 18 -7 26.5t-22 12.5l-17 5q-23 7 -33 15l4 81h285zM396 926l243 141l72 -137l-265 -100z" />
    <glyph glyph-name="Wcircumflex" unicode="&#x174;" horiz-adv-x="1015" 
d="M1004 705q-7 -6 -29 -13l-15 -5q-18 -6 -27.5 -19.5t-18.5 -46.5l-145 -621h-167l-94 421l-104 -421h-167l-139 614q-9 38 -18 51.5t-25 19.5l-14 5q-24 9 -33 16l6 82h334l9 -83q-7 -7 -27 -13l-13 -4q-14 -5 -20.5 -13.5t-6.5 -27.5q0 -6 4 -34l63 -317l110 492h147
l100 -510l65 316q8 38 8 54q0 18 -7 26.5t-22 12.5l-17 5q-23 7 -33 15l4 81h285zM343 902l131 133h136l130 -132l-66 -74l-133 100l-132 -100z" />
    <glyph glyph-name="Wdieresis" unicode="&#x1e84;" horiz-adv-x="1015" 
d="M1004 705q-7 -6 -29 -13l-15 -5q-18 -6 -27.5 -19.5t-18.5 -46.5l-145 -621h-167l-94 421l-104 -421h-167l-139 614q-9 38 -18 51.5t-25 19.5l-14 5q-24 9 -33 16l6 82h334l9 -83q-7 -7 -27 -13l-13 -4q-14 -5 -20.5 -13.5t-6.5 -27.5q0 -6 4 -34l63 -317l110 492h147
l100 -510l65 316q8 38 8 54q0 18 -7 26.5t-22 12.5l-17 5q-23 7 -33 15l4 81h285zM367.5 871.5q-25.5 23.5 -25.5 59.5t25.5 59.5t62.5 23.5t62 -23.5t25 -59.5t-25 -59.5t-62 -23.5t-62.5 23.5zM592.5 871.5q-25.5 23.5 -25.5 59.5t25.5 59.5t62.5 23.5t62 -23.5t25 -59.5
t-25 -59.5t-62 -23.5t-62.5 23.5z" />
    <glyph glyph-name="Wgrave" unicode="&#x1e80;" horiz-adv-x="1015" 
d="M1004 705q-7 -6 -29 -13l-15 -5q-18 -6 -27.5 -19.5t-18.5 -46.5l-145 -621h-167l-94 421l-104 -421h-167l-139 614q-9 38 -18 51.5t-25 19.5l-14 5q-24 9 -33 16l6 82h334l9 -83q-7 -7 -27 -13l-13 -4q-14 -5 -20.5 -13.5t-6.5 -27.5q0 -6 4 -34l63 -317l110 492h147
l100 -510l65 316q8 38 8 54q0 18 -7 26.5t-22 12.5l-17 5q-23 7 -33 15l4 81h285zM365 930l72 137l243 -141l-50 -96z" />
    <glyph glyph-name="X" unicode="X" horiz-adv-x="764" 
d="M755 82l-6 -82h-340l-10 82q10 5 26 11l10 4q14 5 14 17q0 16 -21 48l-71 117l-78 -117q-23 -35 -23 -50q0 -11 13 -16l13 -5q15 -6 23 -11l-5 -80h-282l-9 83q11 6 31 13l18 6q23 8 43 23.5t43 48.5l143 212l-136 221q-25 41 -41.5 55.5t-39.5 22.5l-14 5q-24 9 -33 16
l6 82h336l11 -82q-8 -5 -28 -12l-10 -4q-14 -5 -14 -17t14 -36l64 -107l65 95q23 37 23 51q0 10 -13 15l-13 5q-21 8 -27 12l4 80h286l8 -83q-7 -6 -29 -13l-15 -5q-24 -8 -42 -22.5t-43 -48.5l-132 -195l137 -224q28 -47 47.5 -66t41.5 -26l18 -6q23 -8 37 -17z" />
    <glyph glyph-name="Y" unicode="Y" horiz-adv-x="716" 
d="M718 705q-7 -6 -29 -13l-16 -5q-22 -6 -37 -22t-32 -52l-139 -302v-133q0 -31 2 -44t8.5 -20t21.5 -12l15 -5q20 -7 31 -16l-5 -81h-341l-6 82q9 9 27 14l19 6q16 5 22.5 12t8.5 20.5t2 44.5v120l-157 319q-17 33 -29.5 47.5t-27.5 19.5l-15 5q-24 9 -33 16l7 82h330
l8 -83q-7 -7 -27 -13l-13 -4q-18 -6 -18 -20q0 -12 12 -38l88 -178l75 163q18 40 18 57q0 13 -12 16l-15 4q-23 7 -33 15l4 81h279z" />
    <glyph glyph-name="Yacute" unicode="&#xdd;" horiz-adv-x="716" 
d="M718 705q-7 -6 -29 -13l-16 -5q-22 -6 -37 -22t-32 -52l-139 -302v-133q0 -31 2 -44t8.5 -20t21.5 -12l15 -5q20 -7 31 -16l-5 -81h-341l-6 82q9 9 27 14l19 6q16 5 22.5 12t8.5 20.5t2 44.5v120l-157 319q-17 33 -29.5 47.5t-27.5 19.5l-15 5q-24 9 -33 16l7 82h330
l8 -83q-7 -7 -27 -13l-13 -4q-18 -6 -18 -20q0 -12 12 -38l88 -178l75 163q18 40 18 57q0 13 -12 16l-15 4q-23 7 -33 15l4 81h279zM233 926l243 141l72 -137l-265 -100z" />
    <glyph glyph-name="Ycircumflex" unicode="&#x176;" horiz-adv-x="716" 
d="M718 705q-7 -6 -29 -13l-16 -5q-22 -6 -37 -22t-32 -52l-139 -302v-133q0 -31 2 -44t8.5 -20t21.5 -12l15 -5q20 -7 31 -16l-5 -81h-341l-6 82q9 9 27 14l19 6q16 5 22.5 12t8.5 20.5t2 44.5v120l-157 319q-17 33 -29.5 47.5t-27.5 19.5l-15 5q-24 9 -33 16l7 82h330
l8 -83q-7 -7 -27 -13l-13 -4q-18 -6 -18 -20q0 -12 12 -38l88 -178l75 163q18 40 18 57q0 13 -12 16l-15 4q-23 7 -33 15l4 81h279zM180 902l131 133h136l130 -132l-66 -74l-133 100l-132 -100z" />
    <glyph glyph-name="Ydieresis" unicode="&#x178;" horiz-adv-x="716" 
d="M718 705q-7 -6 -29 -13l-16 -5q-22 -6 -37 -22t-32 -52l-139 -302v-133q0 -31 2 -44t8.5 -20t21.5 -12l15 -5q20 -7 31 -16l-5 -81h-341l-6 82q9 9 27 14l19 6q16 5 22.5 12t8.5 20.5t2 44.5v120l-157 319q-17 33 -29.5 47.5t-27.5 19.5l-15 5q-24 9 -33 16l7 82h330
l8 -83q-7 -7 -27 -13l-13 -4q-18 -6 -18 -20q0 -12 12 -38l88 -178l75 163q18 40 18 57q0 13 -12 16l-15 4q-23 7 -33 15l4 81h279zM204.5 871.5q-25.5 23.5 -25.5 59.5t25.5 59.5t62.5 23.5t62 -23.5t25 -59.5t-25 -59.5t-62 -23.5t-62.5 23.5zM429.5 871.5
q-25.5 23.5 -25.5 59.5t25.5 59.5t62.5 23.5t62 -23.5t25 -59.5t-25 -59.5t-62 -23.5t-62.5 23.5z" />
    <glyph glyph-name="Ygrave" unicode="&#x1ef2;" horiz-adv-x="716" 
d="M718 705q-7 -6 -29 -13l-16 -5q-22 -6 -37 -22t-32 -52l-139 -302v-133q0 -31 2 -44t8.5 -20t21.5 -12l15 -5q20 -7 31 -16l-5 -81h-341l-6 82q9 9 27 14l19 6q16 5 22.5 12t8.5 20.5t2 44.5v120l-157 319q-17 33 -29.5 47.5t-27.5 19.5l-15 5q-24 9 -33 16l7 82h330
l8 -83q-7 -7 -27 -13l-13 -4q-18 -6 -18 -20q0 -12 12 -38l88 -178l75 163q18 40 18 57q0 13 -12 16l-15 4q-23 7 -33 15l4 81h279zM202 930l72 137l243 -141l-50 -96z" />
    <glyph glyph-name="Z" unicode="Z" horiz-adv-x="642" 
d="M617 230v-230h-592v103l347 569h-177q-17 0 -23 -3t-10 -16l-14 -39q-11 -29 -21 -51h-87v225h563v-98l-352 -574h211q17 0 23 3t10 16l14 41q10 31 21 54h87z" />
    <glyph glyph-name="Zacute" unicode="&#x179;" horiz-adv-x="642" 
d="M617 230v-230h-592v103l347 569h-177q-17 0 -23 -3t-10 -16l-14 -39q-11 -29 -21 -51h-87v225h563v-98l-352 -574h211q17 0 23 3t10 16l14 41q10 31 21 54h87zM186 926l243 141l72 -137l-265 -100z" />
    <glyph glyph-name="Zcaron" unicode="&#x17d;" horiz-adv-x="642" 
d="M617 230v-230h-592v103l347 569h-177q-17 0 -23 -3t-10 -16l-14 -39q-11 -29 -21 -51h-87v225h563v-98l-352 -574h211q17 0 23 3t10 16l14 41q10 31 21 54h87zM133 973l66 74l133 -95l132 95l66 -73l-131 -128h-136z" />
    <glyph glyph-name="Zdotaccent" unicode="&#x17b;" horiz-adv-x="642" 
d="M617 230v-230h-592v103l347 569h-177q-17 0 -23 -3t-10 -16l-14 -39q-11 -29 -21 -51h-87v225h563v-98l-352 -574h211q17 0 23 3t10 16l14 41q10 31 21 54h87zM261.5 878q-27.5 27 -27.5 69t27.5 68.5t72.5 26.5q42 0 70 -26.5t28 -68.5q0 -41 -28 -68.5t-70 -27.5
q-45 0 -72.5 27z" />
    <glyph glyph-name="Cacute.loclPLK" horiz-adv-x="687" 
d="M123 92.5q-85 104.5 -85 299.5q0 127 42.5 219.5t117.5 140.5t172 48q78 0 128 -30q6 -3 9 -3q5 0 6 6l4 21h123v-258h-128l-6 35q-19 114 -112 114q-69 0 -110 -73t-41 -214q0 -148 39.5 -220t114.5 -72q48 0 88.5 40.5t64.5 113.5l113 -43q-30 -106 -104 -167.5
t-186 -61.5q-165 0 -250 104.5zM293 901l126 218l132 -87l-163 -189z" />
    <glyph glyph-name="Nacute.loclPLK" horiz-adv-x="817" 
d="M38 82q9 9 27 14l19 6q16 5 22.5 12t8.5 20.5t2 44.5v432q0 31 -1.5 44t-8.5 19.5t-24 12.5l-20 7q-15 5 -24 14l5 80h252l280 -470v291q0 31 -2 44.5t-8.5 20.5t-21.5 12l-15 5q-20 7 -31 16l5 81h278l6 -82q-9 -9 -27 -14l-19 -6q-16 -5 -22.5 -12t-8.5 -20.5t-2 -44.5
v-609h-153l-306 508v-329q0 -31 2 -44.5t8.5 -20.5t21.5 -12l15 -5q20 -7 31 -16l-5 -81h-278zM335 901l126 218l132 -87l-163 -189z" />
    <glyph glyph-name="Oacute.loclPLK" horiz-adv-x="759" 
d="M129 89q-91 101 -91 300q0 133 43 225.5t120 139t179 46.5q101 0 178 -46t120 -137t43 -223q0 -133 -42.5 -224t-119.5 -136.5t-180 -45.5q-159 0 -250 101zM482 179q34 76 34 216q0 141 -33.5 215.5t-100.5 74.5q-69 0 -104 -73.5t-35 -213.5q0 -144 34.5 -219.5
t104.5 -75.5q66 0 100 76zM301 901l126 218l132 -87l-163 -189z" />
    <glyph glyph-name="Sacute.loclPLK" horiz-adv-x="649" 
d="M266 0q-44 12 -81 35q-5 3 -8 3q-4 0 -6 -9l-2 -29h-126v275h134l2 -32q4 -68 44.5 -104t101.5 -36q45 0 68 22.5t23 59.5q0 34 -23 59.5t-76 57.5l-110 67q-80 49 -117 100.5t-37 124.5q0 61 32 108t88.5 72.5t125.5 25.5q43 0 73.5 -8t54.5 -23q4 -3 8 -3q5 0 7 8l4 24
h126v-246h-134l-4 41q-9 92 -99 92q-39 0 -61.5 -16.5t-22.5 -45.5q0 -27 22.5 -49t86.5 -61l108 -66q78 -47 111.5 -99.5t33.5 -126.5q0 -69 -34 -122t-90.5 -82t-121.5 -29q-57 0 -101 12zM244 901l126 218l132 -87l-163 -189z" />
    <glyph glyph-name="Zacute.loclPLK" horiz-adv-x="642" 
d="M617 230v-230h-592v103l347 569h-177q-17 0 -23 -3t-10 -16l-14 -39q-11 -29 -21 -51h-87v225h563v-98l-352 -574h211q17 0 23 3t10 16l14 41q10 31 21 54h87zM253 901l126 218l132 -87l-163 -189z" />
    <glyph glyph-name="a" unicode="a" horiz-adv-x="638" 
d="M614 82l-3 -82h-224v76q-20 -38 -66.5 -63t-100.5 -25q-90 0 -139 44.5t-49 115.5q0 74 52 116.5t167 63.5l91 17q17 3 23 9t6 21v17q0 47 -15.5 67.5t-48.5 20.5q-34 0 -47.5 -18.5t-13.5 -57.5v-37h-148q-16 0 -25 12t-9 38q0 49 28.5 87t84 59.5t133.5 21.5
q128 0 186 -51t58 -152v-235q0 -24 5.5 -35t18.5 -15l14 -4q16 -5 22 -11zM371 263q-15 -7 -45 -15l-26 -6q-45 -11 -65 -28.5t-20 -47.5t19.5 -49t52.5 -19q40 0 62 28t22 75v62z" />
    <glyph glyph-name="aacute" unicode="&#xe1;" horiz-adv-x="638" 
d="M614 82l-3 -82h-224v76q-20 -38 -66.5 -63t-100.5 -25q-90 0 -139 44.5t-49 115.5q0 74 52 116.5t167 63.5l91 17q17 3 23 9t6 21v17q0 47 -15.5 67.5t-48.5 20.5q-34 0 -47.5 -18.5t-13.5 -57.5v-37h-148q-16 0 -25 12t-9 38q0 49 28.5 87t84 59.5t133.5 21.5
q128 0 186 -51t58 -152v-235q0 -24 5.5 -35t18.5 -15l14 -4q16 -5 22 -11zM371 263q-15 -7 -45 -15l-26 -6q-45 -11 -65 -28.5t-20 -47.5t19.5 -49t52.5 -19q40 0 62 28t22 75v62zM200 705l201 168l100 -114l-235 -140z" />
    <glyph glyph-name="abreve" unicode="&#x103;" horiz-adv-x="638" 
d="M614 82l-3 -82h-224v76q-20 -38 -66.5 -63t-100.5 -25q-90 0 -139 44.5t-49 115.5q0 74 52 116.5t167 63.5l91 17q17 3 23 9t6 21v17q0 47 -15.5 67.5t-48.5 20.5q-34 0 -47.5 -18.5t-13.5 -57.5v-37h-148q-16 0 -25 12t-9 38q0 49 28.5 87t84 59.5t133.5 21.5
q128 0 186 -51t58 -152v-235q0 -24 5.5 -35t18.5 -15l14 -4q16 -5 22 -11zM371 263q-15 -7 -45 -15l-26 -6q-45 -11 -65 -28.5t-20 -47.5t19.5 -49t52.5 -19q40 0 62 28t22 75v62zM225 642.5q-42 20.5 -68 60.5t-28 96h123q2 -32 19 -49.5t45 -17.5t45.5 17.5t19.5 49.5h121
q-2 -56 -28.5 -96t-68.5 -60.5t-90 -20.5t-90 20.5z" />
    <glyph glyph-name="uni01CE" unicode="&#x1ce;" horiz-adv-x="638" 
d="M614 82l-3 -82h-224v76q-20 -38 -66.5 -63t-100.5 -25q-90 0 -139 44.5t-49 115.5q0 74 52 116.5t167 63.5l91 17q17 3 23 9t6 21v17q0 47 -15.5 67.5t-48.5 20.5q-34 0 -47.5 -18.5t-13.5 -57.5v-37h-148q-16 0 -25 12t-9 38q0 49 28.5 87t84 59.5t133.5 21.5
q128 0 186 -51t58 -152v-235q0 -24 5.5 -35t18.5 -15l14 -4q16 -5 22 -11zM371 263q-15 -7 -45 -15l-26 -6q-45 -11 -65 -28.5t-20 -47.5t19.5 -49t52.5 -19q40 0 62 28t22 75v62zM118 775l75 73l123 -101l123 101l75 -73l-144 -139h-109z" />
    <glyph glyph-name="acircumflex" unicode="&#xe2;" horiz-adv-x="638" 
d="M614 82l-3 -82h-224v76q-20 -38 -66.5 -63t-100.5 -25q-90 0 -139 44.5t-49 115.5q0 74 52 116.5t167 63.5l91 17q17 3 23 9t6 21v17q0 47 -15.5 67.5t-48.5 20.5q-34 0 -47.5 -18.5t-13.5 -57.5v-37h-148q-16 0 -25 12t-9 38q0 49 28.5 87t84 59.5t133.5 21.5
q128 0 186 -51t58 -152v-235q0 -24 5.5 -35t18.5 -15l14 -4q16 -5 22 -11zM371 263q-15 -7 -45 -15l-26 -6q-45 -11 -65 -28.5t-20 -47.5t19.5 -49t52.5 -19q40 0 62 28t22 75v62zM118 691l143 143h109l142 -143l-73 -73l-123 105l-123 -105z" />
    <glyph glyph-name="adieresis" unicode="&#xe4;" horiz-adv-x="638" 
d="M614 82l-3 -82h-224v76q-20 -38 -66.5 -63t-100.5 -25q-90 0 -139 44.5t-49 115.5q0 74 52 116.5t167 63.5l91 17q17 3 23 9t6 21v17q0 47 -15.5 67.5t-48.5 20.5q-34 0 -47.5 -18.5t-13.5 -57.5v-37h-148q-16 0 -25 12t-9 38q0 49 28.5 87t84 59.5t133.5 21.5
q128 0 186 -51t58 -152v-235q0 -24 5.5 -35t18.5 -15l14 -4q16 -5 22 -11zM371 263q-15 -7 -45 -15l-26 -6q-45 -11 -65 -28.5t-20 -47.5t19.5 -49t52.5 -19q40 0 62 28t22 75v62zM142.5 664.5q-25.5 25.5 -25.5 60.5t25.5 60.5t60.5 25.5t60.5 -25.5t25.5 -60.5
t-25.5 -60.5t-60.5 -25.5t-60.5 25.5zM368.5 664.5q-25.5 25.5 -25.5 60.5t25.5 60.5t60.5 25.5t60.5 -25.5t25.5 -60.5t-25.5 -60.5t-60.5 -25.5t-60.5 25.5z" />
    <glyph glyph-name="agrave" unicode="&#xe0;" horiz-adv-x="638" 
d="M614 82l-3 -82h-224v76q-20 -38 -66.5 -63t-100.5 -25q-90 0 -139 44.5t-49 115.5q0 74 52 116.5t167 63.5l91 17q17 3 23 9t6 21v17q0 47 -15.5 67.5t-48.5 20.5q-34 0 -47.5 -18.5t-13.5 -57.5v-37h-148q-16 0 -25 12t-9 38q0 49 28.5 87t84 59.5t133.5 21.5
q128 0 186 -51t58 -152v-235q0 -24 5.5 -35t18.5 -15l14 -4q16 -5 22 -11zM371 263q-15 -7 -45 -15l-26 -6q-45 -11 -65 -28.5t-20 -47.5t19.5 -49t52.5 -19q40 0 62 28t22 75v62zM143 759l100 114l201 -168l-66 -86z" />
    <glyph glyph-name="amacron" unicode="&#x101;" horiz-adv-x="638" 
d="M614 82l-3 -82h-224v76q-20 -38 -66.5 -63t-100.5 -25q-90 0 -139 44.5t-49 115.5q0 74 52 116.5t167 63.5l91 17q17 3 23 9t6 21v17q0 47 -15.5 67.5t-48.5 20.5q-34 0 -47.5 -18.5t-13.5 -57.5v-37h-148q-16 0 -25 12t-9 38q0 49 28.5 87t84 59.5t133.5 21.5
q128 0 186 -51t58 -152v-235q0 -24 5.5 -35t18.5 -15l14 -4q16 -5 22 -11zM371 263q-15 -7 -45 -15l-26 -6q-45 -11 -65 -28.5t-20 -47.5t19.5 -49t52.5 -19q40 0 62 28t22 75v62zM121 762h390v-117h-390v117z" />
    <glyph glyph-name="aogonek" unicode="&#x105;" horiz-adv-x="638" 
d="M634 -156q-26 -28 -63.5 -44.5t-82.5 -16.5q-63 0 -97.5 28.5t-34.5 78.5q0 32 24.5 63t68.5 48q-53 16 -67 66q-22 -34 -67 -56.5t-95 -22.5q-90 0 -139 44.5t-49 115.5q0 74 52 116.5t167 63.5l91 17q17 3 23 9t6 21v17q0 47 -15.5 67.5t-48.5 20.5q-34 0 -47.5 -18.5
t-13.5 -57.5v-37h-148q-15 0 -24 10q-10 13 -10 40q0 49 28.5 87t84 59.5t133.5 21.5q128 0 186 -51t58 -152v-236q0 -27 4 -36.5t21 -14.5l14 -4q14 -4 21 -10l-3 -82h-10q-26 0 -51 -13t-41 -32.5t-16 -38.5q0 -16 7.5 -26t21.5 -10q30 0 63 33zM371 263q-15 -7 -45 -15
l-26 -6q-45 -11 -65 -28.5t-20 -47.5t19.5 -49t52.5 -19q40 0 62 28t22 75v62z" />
    <glyph glyph-name="aring" unicode="&#xe5;" horiz-adv-x="638" 
d="M614 82l-3 -82h-224v76q-20 -38 -66.5 -63t-100.5 -25q-90 0 -139 44.5t-49 115.5q0 74 52 116.5t167 63.5l91 17q17 3 23 9t6 21v17q0 47 -15.5 67.5t-48.5 20.5q-34 0 -47.5 -18.5t-13.5 -57.5v-37h-148q-16 0 -25 12t-9 38q0 49 28.5 87t84 59.5t133.5 21.5
q128 0 186 -51t58 -152v-235q0 -24 5.5 -35t18.5 -15l14 -4q16 -5 22 -11zM371 263q-15 -7 -45 -15l-26 -6q-45 -11 -65 -28.5t-20 -47.5t19.5 -49t52.5 -19q40 0 62 28t22 75v62zM222.5 644.5q-37.5 27.5 -37.5 79.5q0 50 37.5 79t94.5 29q54 0 92 -28t38 -79t-37 -79.5
t-95 -28.5q-55 0 -92.5 27.5zM345 694.5q11 11.5 11 30.5q0 20 -11.5 31t-29.5 11q-17 0 -28 -11.5t-11 -30.5t12 -30.5t29 -11.5t28 11.5z" />
    <glyph glyph-name="atilde" unicode="&#xe3;" horiz-adv-x="638" 
d="M614 82l-3 -82h-224v76q-20 -38 -66.5 -63t-100.5 -25q-90 0 -139 44.5t-49 115.5q0 74 52 116.5t167 63.5l91 17q17 3 23 9t6 21v17q0 47 -15.5 67.5t-48.5 20.5q-34 0 -47.5 -18.5t-13.5 -57.5v-37h-148q-16 0 -25 12t-9 38q0 49 28.5 87t84 59.5t133.5 21.5
q128 0 186 -51t58 -152v-235q0 -24 5.5 -35t18.5 -15l14 -4q16 -5 22 -11zM371 263q-15 -7 -45 -15l-26 -6q-45 -11 -65 -28.5t-20 -47.5t19.5 -49t52.5 -19q40 0 62 28t22 75v62zM99 685q16 57 53.5 90.5t87.5 33.5q25 0 46.5 -8.5t46.5 -24.5q20 -12 34 -18t27 -6
q21 0 36 16t24 43l79 -57q-14 -54 -49.5 -89.5t-84.5 -35.5q-29 0 -50.5 9t-46.5 25q-18 11 -30 16.5t-25 5.5q-22 0 -39 -15.5t-27 -42.5z" />
    <glyph glyph-name="ae" unicode="&#xe6;" horiz-adv-x="959" 
d="M128 9q-47 21 -71.5 57t-24.5 82q0 74 52 116.5t167 63.5l91 17q17 3 23 9t6 21v17q0 47 -15.5 67.5t-48.5 20.5q-34 0 -47.5 -18.5t-13.5 -57.5v-37h-148q-17 0 -25 11q-9 12 -9 39q0 49 28.5 87t84 59.5t133.5 21.5q109 0 167 -55q35 28 78.5 41.5t88.5 13.5
q78 0 135.5 -32t93.5 -89q15 -24 27 -54t12 -49q0 -13 -6.5 -22t-21.5 -18q-52 -33 -146 -67t-168 -50q-14 -3 -13 -15q4 -32 31 -56t87 -24q47 0 91 20.5t81 59.5l70 -74q-50 -62 -112.5 -94.5t-151.5 -32.5q-68 0 -126 27.5t-88 71.5q-29 -46 -79.5 -72.5t-121.5 -26.5
q-63 0 -110 21zM623 317.5q49 14.5 83 30.5q12 5 17 10.5t5 12.5q0 21 -14 52q-12 27 -32 44t-47 17q-48 0 -71 -37.5t-23 -100.5q0 -15 2 -31q1 -7 4 -9.5t10 -2.5q17 0 66 14.5zM349 124.5q22 26.5 22 72.5v66q-15 -7 -45 -15l-26 -6q-45 -11 -65 -28.5t-20 -47.5
t19.5 -49t52.5 -19q40 0 62 26.5z" />
    <glyph glyph-name="aeacute" unicode="&#x1fd;" horiz-adv-x="959" 
d="M128 9q-47 21 -71.5 57t-24.5 82q0 74 52 116.5t167 63.5l91 17q17 3 23 9t6 21v17q0 47 -15.5 67.5t-48.5 20.5q-34 0 -47.5 -18.5t-13.5 -57.5v-37h-148q-17 0 -25 11q-9 12 -9 39q0 49 28.5 87t84 59.5t133.5 21.5q109 0 167 -55q35 28 78.5 41.5t88.5 13.5
q78 0 135.5 -32t93.5 -89q15 -24 27 -54t12 -49q0 -13 -6.5 -22t-21.5 -18q-52 -33 -146 -67t-168 -50q-14 -3 -13 -15q4 -32 31 -56t87 -24q47 0 91 20.5t81 59.5l70 -74q-50 -62 -112.5 -94.5t-151.5 -32.5q-68 0 -126 27.5t-88 71.5q-29 -46 -79.5 -72.5t-121.5 -26.5
q-63 0 -110 21zM623 317.5q49 14.5 83 30.5q12 5 17 10.5t5 12.5q0 21 -14 52q-12 27 -32 44t-47 17q-48 0 -71 -37.5t-23 -100.5q0 -15 2 -31q1 -7 4 -9.5t10 -2.5q17 0 66 14.5zM349 124.5q22 26.5 22 72.5v66q-15 -7 -45 -15l-26 -6q-45 -11 -65 -28.5t-20 -47.5
t19.5 -49t52.5 -19q40 0 62 26.5zM368 705l201 168l100 -114l-235 -140z" />
    <glyph glyph-name="b" unicode="b" horiz-adv-x="680" 
d="M545 549q51 -36 79 -103.5t28 -159.5q0 -90 -28.5 -157.5t-82 -104t-126.5 -36.5q-53 0 -96 20.5t-72 58.5v-67h-227l-3 79q10 5 31 12l15 5q19 7 25 16t6 31v502q0 24 -6.5 32.5t-25.5 14.5l-15 5q-22 7 -29 12l3 79h256v-261q27 27 66.5 42.5t83.5 15.5q67 0 118 -36z
M465 286q0 98 -21.5 144.5t-67.5 46.5q-99 0 -99 -191q0 -95 26 -144t74 -49q88 0 88 193z" />
    <glyph glyph-name="c" unicode="c" horiz-adv-x="583" 
d="M166.5 22q-64.5 34 -101.5 102t-37 165q0 91 36 158t97.5 102.5t138.5 35.5q62 0 107 -26q4 -3 8 -3q6 0 7 9l3 17h112v-235h-114l-2 22q-11 110 -90 110q-53 0 -84.5 -44t-31.5 -135q0 -96 37.5 -143.5t97.5 -47.5q36 0 68.5 17.5t67.5 53.5l68 -72q-90 -120 -240 -120
q-83 0 -147.5 34z" />
    <glyph glyph-name="cacute" unicode="&#x107;" horiz-adv-x="583" 
d="M166.5 22q-64.5 34 -101.5 102t-37 165q0 91 36 158t97.5 102.5t138.5 35.5q62 0 107 -26q4 -3 8 -3q6 0 7 9l3 17h112v-235h-114l-2 22q-11 110 -90 110q-53 0 -84.5 -44t-31.5 -135q0 -96 37.5 -143.5t97.5 -47.5q36 0 68.5 17.5t67.5 53.5l68 -72q-90 -120 -240 -120
q-83 0 -147.5 34zM191 705l201 168l100 -114l-235 -140z" />
    <glyph glyph-name="ccaron" unicode="&#x10d;" horiz-adv-x="583" 
d="M166.5 22q-64.5 34 -101.5 102t-37 165q0 91 36 158t97.5 102.5t138.5 35.5q62 0 107 -26q4 -3 8 -3q6 0 7 9l3 17h112v-235h-114l-2 22q-11 110 -90 110q-53 0 -84.5 -44t-31.5 -135q0 -96 37.5 -143.5t97.5 -47.5q36 0 68.5 17.5t67.5 53.5l68 -72q-90 -120 -240 -120
q-83 0 -147.5 34zM109 775l75 73l123 -101l123 101l75 -73l-144 -139h-109z" />
    <glyph glyph-name="ccedilla" unicode="&#xe7;" horiz-adv-x="583" 
d="M166.5 22q-64.5 34 -101.5 102t-37 165q0 91 36 158t97.5 102.5t138.5 35.5q62 0 107 -26q4 -3 8 -3q6 0 7 9l3 17h112v-235h-114l-2 22q-11 110 -90 110q-53 0 -84.5 -44t-31.5 -135q0 -96 37.5 -143.5t97.5 -47.5q36 0 68.5 17.5t67.5 53.5l68 -72q-90 -120 -240 -120
q-83 0 -147.5 34zM222 -217.5q-35 9.5 -58 24.5l28 76q39 -26 73 -26q16 0 25 7.5t9 21.5q0 36 -73 46l32 70h85l-12 -27q47 -11 74.5 -38.5t27.5 -66.5q0 -41 -35 -69t-101 -28q-40 0 -75 9.5z" />
    <glyph glyph-name="ccircumflex" unicode="&#x109;" horiz-adv-x="583" 
d="M166.5 22q-64.5 34 -101.5 102t-37 165q0 91 36 158t97.5 102.5t138.5 35.5q62 0 107 -26q4 -3 8 -3q6 0 7 9l3 17h112v-235h-114l-2 22q-11 110 -90 110q-53 0 -84.5 -44t-31.5 -135q0 -96 37.5 -143.5t97.5 -47.5q36 0 68.5 17.5t67.5 53.5l68 -72q-90 -120 -240 -120
q-83 0 -147.5 34zM109 691l143 143h109l142 -143l-73 -73l-123 105l-123 -105z" />
    <glyph glyph-name="cdotaccent" unicode="&#x10b;" horiz-adv-x="583" 
d="M166.5 22q-64.5 34 -101.5 102t-37 165q0 91 36 158t97.5 102.5t138.5 35.5q62 0 107 -26q4 -3 8 -3q6 0 7 9l3 17h112v-235h-114l-2 22q-11 110 -90 110q-53 0 -84.5 -44t-31.5 -135q0 -96 37.5 -143.5t97.5 -47.5q36 0 68.5 17.5t67.5 53.5l68 -72q-90 -120 -240 -120
q-83 0 -147.5 34zM237 663.5q-29 29.5 -29 70.5q0 42 29 70.5t70 28.5q40 0 69.5 -29t29.5 -70t-29.5 -70.5t-69.5 -29.5q-41 0 -70 29.5z" />
    <glyph glyph-name="d" unicode="d" horiz-adv-x="674" 
d="M662 79l-3 -79h-227v78q-26 -44 -67.5 -67t-92.5 -23q-72 0 -127 36.5t-86 104.5t-31 158t31 157.5t85.5 104t123.5 36.5q41 0 75 -15t59 -42v117q0 24 -6.5 32.5t-25.5 14.5l-15 5q-22 7 -29 12l3 79h256v-645q0 -21 6.5 -31t24.5 -16l15 -5q21 -7 31 -12zM402 287
q0 98 -21.5 144t-65.5 46q-100 0 -100 -189q0 -192 96 -192q91 0 91 191z" />
    <glyph glyph-name="eth" unicode="&#xf0;" horiz-adv-x="625" 
d="M597 308q0 -94 -33.5 -166t-99 -113t-158.5 -41q-81 0 -144 35.5t-98.5 100t-35.5 150.5q0 85 33 151t90 102.5t128 36.5q62 0 108 -33q-21 67 -56 111l-91 -48l-46 87l67 36q-21 20 -62 53l93 59q46 -29 80 -58l95 49l48 -88l-72 -34q154 -170 154 -390zM385 143.5
q25 52.5 25 130.5q0 89 -22.5 136.5t-73.5 47.5q-53 0 -76 -53t-23 -131q0 -73 22.5 -128t76.5 -55q46 0 71 52.5z" />
    <glyph glyph-name="dcaron" unicode="&#x10f;" horiz-adv-x="674" 
d="M662 79l-3 -79h-227v78q-26 -44 -67.5 -67t-92.5 -23q-72 0 -127 36.5t-86 104.5t-31 158t31 157.5t85.5 104t123.5 36.5q41 0 75 -15t59 -42v117q0 24 -6.5 32.5t-25.5 14.5l-15 5q-22 7 -29 12l3 79h256v-645q0 -21 6.5 -31t24.5 -16l15 -5q21 -7 31 -12zM402 287
q0 98 -21.5 144t-65.5 46q-100 0 -100 -189q0 -192 96 -192q91 0 91 191zM621 573q53 45 53 78q0 13 -15 30q-11 13 -17 25t-6 30q0 28 22 46t53 18q39 0 63.5 -26t24.5 -71q0 -44 -28 -94.5t-78 -89.5z" />
    <glyph glyph-name="dcroat" unicode="&#x111;" horiz-adv-x="674" 
d="M662 79l-3 -79h-227v78q-26 -44 -67.5 -67t-92.5 -23q-72 0 -127 36.5t-86 104.5t-31 158t31 157.5t85.5 104t123.5 36.5q41 0 75 -15t59 -42v73h-120v70h117q-4 8 -10.5 12.5t-18.5 8.5l-15 5q-22 7 -29 12l3 79h256v-117h55v-70h-55v-458q0 -21 6.5 -31t24.5 -16l15 -5
q21 -7 31 -12zM402 287q0 98 -21.5 144t-65.5 46q-100 0 -100 -189q0 -192 96 -192q91 0 91 191z" />
    <glyph glyph-name="e" unicode="e" horiz-adv-x="627" 
d="M167.5 24.5q-66.5 36.5 -103 104t-36.5 159.5q0 88 37.5 155.5t101.5 104.5t142 37q77 0 135.5 -32t96.5 -89q15 -24 27 -54t12 -49q0 -13 -6.5 -22t-21.5 -18q-50 -31 -142.5 -64t-171.5 -53q-14 -3 -13 -15q5 -33 32 -56.5t86 -23.5q47 0 91 20.5t81 59.5l70 -74
q-50 -62 -112.5 -94.5t-151.5 -32.5q-87 0 -153.5 36.5zM291 317.5q49 14.5 83 30.5q12 5 17 10.5t5 12.5q0 21 -14 52q-12 27 -32 44t-47 17q-48 0 -71 -37.5t-23 -100.5q0 -15 2 -31q1 -7 4 -9.5t10 -2.5q17 0 66 14.5z" />
    <glyph glyph-name="eacute" unicode="&#xe9;" horiz-adv-x="627" 
d="M167.5 24.5q-66.5 36.5 -103 104t-36.5 159.5q0 88 37.5 155.5t101.5 104.5t142 37q77 0 135.5 -32t96.5 -89q15 -24 27 -54t12 -49q0 -13 -6.5 -22t-21.5 -18q-50 -31 -142.5 -64t-171.5 -53q-14 -3 -13 -15q5 -33 32 -56.5t86 -23.5q47 0 91 20.5t81 59.5l70 -74
q-50 -62 -112.5 -94.5t-151.5 -32.5q-87 0 -153.5 36.5zM291 317.5q49 14.5 83 30.5q12 5 17 10.5t5 12.5q0 21 -14 52q-12 27 -32 44t-47 17q-48 0 -71 -37.5t-23 -100.5q0 -15 2 -31q1 -7 4 -9.5t10 -2.5q17 0 66 14.5zM193 705l201 168l100 -114l-235 -140z" />
    <glyph glyph-name="ebreve" unicode="&#x115;" horiz-adv-x="627" 
d="M167.5 24.5q-66.5 36.5 -103 104t-36.5 159.5q0 88 37.5 155.5t101.5 104.5t142 37q77 0 135.5 -32t96.5 -89q15 -24 27 -54t12 -49q0 -13 -6.5 -22t-21.5 -18q-50 -31 -142.5 -64t-171.5 -53q-14 -3 -13 -15q5 -33 32 -56.5t86 -23.5q47 0 91 20.5t81 59.5l70 -74
q-50 -62 -112.5 -94.5t-151.5 -32.5q-87 0 -153.5 36.5zM291 317.5q49 14.5 83 30.5q12 5 17 10.5t5 12.5q0 21 -14 52q-12 27 -32 44t-47 17q-48 0 -71 -37.5t-23 -100.5q0 -15 2 -31q1 -7 4 -9.5t10 -2.5q17 0 66 14.5zM218 642.5q-42 20.5 -68 60.5t-28 96h123
q2 -32 19 -49.5t45 -17.5t45.5 17.5t19.5 49.5h121q-2 -56 -28.5 -96t-68.5 -60.5t-90 -20.5t-90 20.5z" />
    <glyph glyph-name="ecaron" unicode="&#x11b;" horiz-adv-x="627" 
d="M167.5 24.5q-66.5 36.5 -103 104t-36.5 159.5q0 88 37.5 155.5t101.5 104.5t142 37q77 0 135.5 -32t96.5 -89q15 -24 27 -54t12 -49q0 -13 -6.5 -22t-21.5 -18q-50 -31 -142.5 -64t-171.5 -53q-14 -3 -13 -15q5 -33 32 -56.5t86 -23.5q47 0 91 20.5t81 59.5l70 -74
q-50 -62 -112.5 -94.5t-151.5 -32.5q-87 0 -153.5 36.5zM291 317.5q49 14.5 83 30.5q12 5 17 10.5t5 12.5q0 21 -14 52q-12 27 -32 44t-47 17q-48 0 -71 -37.5t-23 -100.5q0 -15 2 -31q1 -7 4 -9.5t10 -2.5q17 0 66 14.5zM111 775l75 73l123 -101l123 101l75 -73l-144 -139
h-109z" />
    <glyph glyph-name="ecircumflex" unicode="&#xea;" horiz-adv-x="627" 
d="M167.5 24.5q-66.5 36.5 -103 104t-36.5 159.5q0 88 37.5 155.5t101.5 104.5t142 37q77 0 135.5 -32t96.5 -89q15 -24 27 -54t12 -49q0 -13 -6.5 -22t-21.5 -18q-50 -31 -142.5 -64t-171.5 -53q-14 -3 -13 -15q5 -33 32 -56.5t86 -23.5q47 0 91 20.5t81 59.5l70 -74
q-50 -62 -112.5 -94.5t-151.5 -32.5q-87 0 -153.5 36.5zM291 317.5q49 14.5 83 30.5q12 5 17 10.5t5 12.5q0 21 -14 52q-12 27 -32 44t-47 17q-48 0 -71 -37.5t-23 -100.5q0 -15 2 -31q1 -7 4 -9.5t10 -2.5q17 0 66 14.5zM111 691l143 143h109l142 -143l-73 -73l-123 105
l-123 -105z" />
    <glyph glyph-name="edieresis" unicode="&#xeb;" horiz-adv-x="627" 
d="M167.5 24.5q-66.5 36.5 -103 104t-36.5 159.5q0 88 37.5 155.5t101.5 104.5t142 37q77 0 135.5 -32t96.5 -89q15 -24 27 -54t12 -49q0 -13 -6.5 -22t-21.5 -18q-50 -31 -142.5 -64t-171.5 -53q-14 -3 -13 -15q5 -33 32 -56.5t86 -23.5q47 0 91 20.5t81 59.5l70 -74
q-50 -62 -112.5 -94.5t-151.5 -32.5q-87 0 -153.5 36.5zM291 317.5q49 14.5 83 30.5q12 5 17 10.5t5 12.5q0 21 -14 52q-12 27 -32 44t-47 17q-48 0 -71 -37.5t-23 -100.5q0 -15 2 -31q1 -7 4 -9.5t10 -2.5q17 0 66 14.5zM135.5 664.5q-25.5 25.5 -25.5 60.5t25.5 60.5
t60.5 25.5t60.5 -25.5t25.5 -60.5t-25.5 -60.5t-60.5 -25.5t-60.5 25.5zM361.5 664.5q-25.5 25.5 -25.5 60.5t25.5 60.5t60.5 25.5t60.5 -25.5t25.5 -60.5t-25.5 -60.5t-60.5 -25.5t-60.5 25.5z" />
    <glyph glyph-name="edotaccent" unicode="&#x117;" horiz-adv-x="627" 
d="M167.5 24.5q-66.5 36.5 -103 104t-36.5 159.5q0 88 37.5 155.5t101.5 104.5t142 37q77 0 135.5 -32t96.5 -89q15 -24 27 -54t12 -49q0 -13 -6.5 -22t-21.5 -18q-50 -31 -142.5 -64t-171.5 -53q-14 -3 -13 -15q5 -33 32 -56.5t86 -23.5q47 0 91 20.5t81 59.5l70 -74
q-50 -62 -112.5 -94.5t-151.5 -32.5q-87 0 -153.5 36.5zM291 317.5q49 14.5 83 30.5q12 5 17 10.5t5 12.5q0 21 -14 52q-12 27 -32 44t-47 17q-48 0 -71 -37.5t-23 -100.5q0 -15 2 -31q1 -7 4 -9.5t10 -2.5q17 0 66 14.5zM239 663.5q-29 29.5 -29 70.5q0 42 29 70.5t70 28.5
q40 0 69.5 -29t29.5 -70t-29.5 -70.5t-69.5 -29.5q-41 0 -70 29.5z" />
    <glyph glyph-name="egrave" unicode="&#xe8;" horiz-adv-x="627" 
d="M167.5 24.5q-66.5 36.5 -103 104t-36.5 159.5q0 88 37.5 155.5t101.5 104.5t142 37q77 0 135.5 -32t96.5 -89q15 -24 27 -54t12 -49q0 -13 -6.5 -22t-21.5 -18q-50 -31 -142.5 -64t-171.5 -53q-14 -3 -13 -15q5 -33 32 -56.5t86 -23.5q47 0 91 20.5t81 59.5l70 -74
q-50 -62 -112.5 -94.5t-151.5 -32.5q-87 0 -153.5 36.5zM291 317.5q49 14.5 83 30.5q12 5 17 10.5t5 12.5q0 21 -14 52q-12 27 -32 44t-47 17q-48 0 -71 -37.5t-23 -100.5q0 -15 2 -31q1 -7 4 -9.5t10 -2.5q17 0 66 14.5zM136 759l100 114l201 -168l-66 -86z" />
    <glyph glyph-name="emacron" unicode="&#x113;" horiz-adv-x="627" 
d="M167.5 24.5q-66.5 36.5 -103 104t-36.5 159.5q0 88 37.5 155.5t101.5 104.5t142 37q77 0 135.5 -32t96.5 -89q15 -24 27 -54t12 -49q0 -13 -6.5 -22t-21.5 -18q-50 -31 -142.5 -64t-171.5 -53q-14 -3 -13 -15q5 -33 32 -56.5t86 -23.5q47 0 91 20.5t81 59.5l70 -74
q-50 -62 -112.5 -94.5t-151.5 -32.5q-87 0 -153.5 36.5zM291 317.5q49 14.5 83 30.5q12 5 17 10.5t5 12.5q0 21 -14 52q-12 27 -32 44t-47 17q-48 0 -71 -37.5t-23 -100.5q0 -15 2 -31q1 -7 4 -9.5t10 -2.5q17 0 66 14.5zM114 762h390v-117h-390v117z" />
    <glyph glyph-name="eogonek" unicode="&#x119;" horiz-adv-x="627" 
d="M305 -119q0 62 64 109q-32 -2 -48 -2q-87 0 -153.5 36.5t-103 104t-36.5 159.5q0 88 37.5 155.5t101.5 104.5t142 37q77 0 135.5 -32t96.5 -89q15 -24 27 -54t12 -49q0 -13 -6.5 -22t-21.5 -18q-50 -31 -142.5 -64t-171.5 -53q-14 -3 -13 -15q5 -33 32 -56.5t86 -23.5
q47 0 91 20.5t81 59.5l70 -74q-45 -56 -79 -81q-38 -27 -53.5 -53.5t-15.5 -59.5q0 -42 33 -42q30 0 63 33l49 -68q-26 -28 -63.5 -44.5t-82.5 -16.5q-131 0 -131 98zM291 317.5q49 14.5 83 30.5q12 5 17 10.5t5 12.5q0 21 -14 52q-12 27 -32 44t-47 17q-48 0 -71 -37.5
t-23 -100.5q0 -15 2 -31q1 -7 4 -9.5t10 -2.5q17 0 66 14.5z" />
    <glyph glyph-name="f" unicode="f" horiz-adv-x="429" 
d="M28 79q10 5 31 12l15 5q19 7 25 16t6 31v309h-87v121h87v55q0 82 54 127t157 45q92 0 141.5 -36t49.5 -106v-5q0 -17 -7 -23q-10 -8 -25 -8h-125v37q0 24 -7.5 35.5t-23.5 11.5t-23.5 -11t-7.5 -38v-84h108v-121h-108v-309q0 -21 6.5 -31t24.5 -16l15 -5q21 -7 31 -12
l-3 -79h-331z" />
    <glyph glyph-name="g" unicode="g" horiz-adv-x="668" 
d="M638 465h-91q36 -56 36 -125q0 -65 -32 -117.5t-89 -77.5q78 -16 120.5 -61.5t42.5 -107.5q0 -58 -37 -103.5t-106 -71t-161 -25.5q-149 0 -221.5 49.5t-72.5 135.5v3q0 19 8 27.5t24 8.5h136l3 -23q14 -102 130 -102q50 0 80 25.5t30 71.5q0 47 -30 75.5t-91 31.5l-20 1
q-131 7 -202 73t-71 187q0 73 32 128.5t95 86t152 30.5q52 0 90 -12h245v-108zM396 333q0 76 -21.5 113t-69.5 37q-49 0 -71.5 -36t-22.5 -114q0 -149 98 -149q87 0 87 149z" />
    <glyph glyph-name="gbreve" unicode="&#x11f;" horiz-adv-x="668" 
d="M638 465h-91q36 -56 36 -125q0 -65 -32 -117.5t-89 -77.5q78 -16 120.5 -61.5t42.5 -107.5q0 -58 -37 -103.5t-106 -71t-161 -25.5q-149 0 -221.5 49.5t-72.5 135.5v3q0 19 8 27.5t24 8.5h136l3 -23q14 -102 130 -102q50 0 80 25.5t30 71.5q0 47 -30 75.5t-91 31.5l-20 1
q-131 7 -202 73t-71 187q0 73 32 128.5t95 86t152 30.5q52 0 90 -12h245v-108zM396 333q0 76 -21.5 113t-69.5 37q-49 0 -71.5 -36t-22.5 -114q0 -149 98 -149q87 0 87 149zM223 642.5q-42 20.5 -68 60.5t-28 96h123q2 -32 19 -49.5t45 -17.5t45.5 17.5t19.5 49.5h121
q-2 -56 -28.5 -96t-68.5 -60.5t-90 -20.5t-90 20.5z" />
    <glyph glyph-name="gcircumflex" unicode="&#x11d;" horiz-adv-x="668" 
d="M638 465h-91q36 -56 36 -125q0 -65 -32 -117.5t-89 -77.5q78 -16 120.5 -61.5t42.5 -107.5q0 -58 -37 -103.5t-106 -71t-161 -25.5q-149 0 -221.5 49.5t-72.5 135.5v3q0 19 8 27.5t24 8.5h136l3 -23q14 -102 130 -102q50 0 80 25.5t30 71.5q0 47 -30 75.5t-91 31.5l-20 1
q-131 7 -202 73t-71 187q0 73 32 128.5t95 86t152 30.5q52 0 90 -12h245v-108zM396 333q0 76 -21.5 113t-69.5 37q-49 0 -71.5 -36t-22.5 -114q0 -149 98 -149q87 0 87 149zM116 691l143 143h109l142 -143l-73 -73l-123 105l-123 -105z" />
    <glyph glyph-name="gcommaaccent" unicode="&#x123;" horiz-adv-x="668" 
d="M638 465h-91q36 -56 36 -125q0 -65 -32 -117.5t-89 -77.5q78 -16 120.5 -61.5t42.5 -107.5q0 -58 -37 -103.5t-106 -71t-161 -25.5q-149 0 -221.5 49.5t-72.5 135.5v3q0 19 8 27.5t24 8.5h136l3 -23q14 -102 130 -102q50 0 80 25.5t30 71.5q0 47 -30 75.5t-91 31.5l-20 1
q-131 7 -202 73t-71 187q0 73 32 128.5t95 86t152 30.5q52 0 90 -12h245v-108zM396 333q0 76 -21.5 113t-69.5 37q-49 0 -71.5 -36t-22.5 -114q0 -149 98 -149q87 0 87 149zM409 855q-26 -19 -42 -39.5t-16 -38.5q0 -7 4 -13t12 -13q13 -12 20 -23t7 -31q0 -31 -23 -51
t-60 -20q-42 0 -69.5 30t-27.5 78q0 42 31.5 92.5t84.5 85.5z" />
    <glyph glyph-name="gdotaccent" unicode="&#x121;" horiz-adv-x="668" 
d="M638 465h-91q36 -56 36 -125q0 -65 -32 -117.5t-89 -77.5q78 -16 120.5 -61.5t42.5 -107.5q0 -58 -37 -103.5t-106 -71t-161 -25.5q-149 0 -221.5 49.5t-72.5 135.5v3q0 19 8 27.5t24 8.5h136l3 -23q14 -102 130 -102q50 0 80 25.5t30 71.5q0 47 -30 75.5t-91 31.5l-20 1
q-131 7 -202 73t-71 187q0 73 32 128.5t95 86t152 30.5q52 0 90 -12h245v-108zM396 333q0 76 -21.5 113t-69.5 37q-49 0 -71.5 -36t-22.5 -114q0 -149 98 -149q87 0 87 149zM244 663.5q-29 29.5 -29 70.5q0 42 29 70.5t70 28.5q40 0 69.5 -29t29.5 -70t-29.5 -70.5
t-69.5 -29.5q-41 0 -70 29.5z" />
    <glyph glyph-name="h" unicode="h" horiz-adv-x="698" 
d="M674 79l-3 -79h-240v349q0 54 -15 80.5t-52 26.5q-43 0 -65 -34.5t-22 -108.5v-170q0 -21 6.5 -31t24.5 -16l15 -5q21 -7 31 -12l-3 -79h-331l-3 79q10 5 31 12l15 5q19 7 25 16t6 31v502q0 24 -6.5 32.5t-25.5 14.5l-15 5q-24 8 -29 12l3 79h256v-263q69 60 157 60
q82 0 131 -51t49 -141v-250q0 -24 4.5 -33.5t17.5 -14.5l11 -4q11 -4 27 -12z" />
    <glyph glyph-name="hbar" unicode="&#x127;" horiz-adv-x="698" 
d="M674 79l-3 -79h-240v349q0 54 -15 80.5t-52 26.5q-43 0 -65 -34.5t-22 -108.5v-170q0 -21 6.5 -31t24.5 -16l15 -5q21 -7 31 -12l-3 -79h-331l-3 79q10 5 31 12l15 5q19 7 25 16t6 31v458h-82v70h79q-4 8 -10.5 12.5t-18.5 8.5l-15 5q-24 8 -29 12l3 79h256v-117h93v-70
h-93v-76q69 60 157 60q82 0 131 -51t49 -141v-250q0 -24 4.5 -33.5t17.5 -14.5l11 -4q11 -4 27 -12z" />
    <glyph glyph-name="hcircumflex" unicode="&#x125;" horiz-adv-x="698" 
d="M674 79l-3 -79h-240v349q0 54 -15 80.5t-52 26.5q-43 0 -65 -34.5t-22 -108.5v-170q0 -21 6.5 -31t24.5 -16l15 -5q21 -7 31 -12l-3 -79h-331l-3 79q10 5 31 12l15 5q19 7 25 16t6 31v502q0 24 -6.5 32.5t-25.5 14.5l-15 5q-24 8 -29 12l3 79h256v-263q69 60 157 60
q82 0 131 -51t49 -141v-250q0 -24 4.5 -33.5t17.5 -14.5l11 -4q11 -4 27 -12zM-39 902l131 133h136l130 -132l-66 -74l-133 100l-132 -100z" />
    <glyph glyph-name="i" unicode="i" horiz-adv-x="363" 
d="M107.5 651q-30.5 29 -30.5 71q0 43 30 71t75 28q44 0 73.5 -28t29.5 -71q0 -42 -29.5 -71t-73.5 -29t-74.5 29zM22 79q10 5 31 12l15 5q19 7 25 16t6 31v287q0 24 -6.5 32.5t-25.5 14.5l-15 5q-24 8 -29 12l3 79h256v-430q0 -21 6.5 -31t24.5 -16l15 -5q21 -7 31 -12
l-3 -79h-331z" />
    <glyph glyph-name="dotlessi" unicode="&#x131;" horiz-adv-x="363" 
d="M22 79q10 5 31 12l15 5q19 7 25 16t6 31v287q0 24 -6.5 32.5t-25.5 14.5l-15 5q-24 8 -29 12l3 79h256v-430q0 -21 6.5 -31t24.5 -16l15 -5q21 -7 31 -12l-3 -79h-331z" />
    <glyph glyph-name="iacute" unicode="&#xed;" horiz-adv-x="363" 
d="M22 79q10 5 31 12l15 5q19 7 25 16t6 31v287q0 24 -6.5 32.5t-25.5 14.5l-15 5q-24 8 -29 12l3 79h256v-430q0 -21 6.5 -31t24.5 -16l15 -5q21 -7 31 -12l-3 -79h-331zM74 681l168 192l108 -109l-192 -153z" />
    <glyph glyph-name="ibreve" unicode="&#x12d;" horiz-adv-x="363" 
d="M22 79q10 5 31 12l15 5q19 7 25 16t6 31v287q0 24 -6.5 32.5t-25.5 14.5l-15 5q-24 8 -29 12l3 79h256v-430q0 -21 6.5 -31t24.5 -16l15 -5q21 -7 31 -12l-3 -79h-331zM61 675q-46 45 -46 132h113q-1 -32 13 -49.5t41 -17.5q53 0 53 67h111q0 -87 -45.5 -132t-119.5 -45
t-120 45z" />
    <glyph glyph-name="icircumflex" unicode="&#xee;" horiz-adv-x="363" 
d="M22 79q10 5 31 12l15 5q19 7 25 16t6 31v287q0 24 -6.5 32.5t-25.5 14.5l-15 5q-24 8 -29 12l3 79h256v-430q0 -21 6.5 -31t24.5 -16l15 -5q21 -7 31 -12l-3 -79h-331zM2 680l120 153h119l121 -154l-83 -60l-97 106l-97 -106z" />
    <glyph glyph-name="idieresis" unicode="&#xef;" horiz-adv-x="363" 
d="M22 79q10 5 31 12l15 5q19 7 25 16t6 31v287q0 24 -6.5 32.5t-25.5 14.5l-15 5q-24 8 -29 12l3 79h256v-430q0 -21 6.5 -31t24.5 -16l15 -5q21 -7 31 -12l-3 -79h-331zM23 662.5q-24 23.5 -24 62.5q0 37 24 61.5t58 24.5t57.5 -24.5t23.5 -61.5q0 -39 -23.5 -62.5
t-57.5 -23.5t-58 23.5zM226 662.5q-24 23.5 -24 62.5q0 37 24 61.5t58 24.5q33 0 57 -24.5t24 -61.5q0 -38 -24 -62t-57 -24q-34 0 -58 23.5z" />
    <glyph glyph-name="i.loclTRK" horiz-adv-x="363" 
d="M107.5 651q-30.5 29 -30.5 71q0 43 30 71t75 28q44 0 73.5 -28t29.5 -71q0 -42 -29.5 -71t-73.5 -29t-74.5 29zM22 79q10 5 31 12l15 5q19 7 25 16t6 31v287q0 24 -6.5 32.5t-25.5 14.5l-15 5q-24 8 -29 12l3 79h256v-430q0 -21 6.5 -31t24.5 -16l15 -5q21 -7 31 -12
l-3 -79h-331z" />
    <glyph glyph-name="igrave" unicode="&#xec;" horiz-adv-x="363" 
d="M22 79q10 5 31 12l15 5q19 7 25 16t6 31v287q0 24 -6.5 32.5t-25.5 14.5l-15 5q-24 8 -29 12l3 79h256v-430q0 -21 6.5 -31t24.5 -16l15 -5q21 -7 31 -12l-3 -79h-331zM20 764l108 109l168 -192l-84 -70z" />
    <glyph glyph-name="ij" unicode="&#x133;" horiz-adv-x="721" 
d="M107.5 651q-30.5 29 -30.5 71q0 43 30 71t75 28q44 0 73.5 -28t29.5 -71q0 -42 -29.5 -71t-73.5 -29t-74.5 29zM22 79q10 5 31 12l15 5q19 7 25 16t6 31v287q0 24 -6.5 32.5t-25.5 14.5l-15 5q-24 8 -29 12l3 79h256v-430q0 -21 6.5 -31t24.5 -16l15 -5q21 -7 31 -12
l-3 -79h-331zM503.5 651q-30.5 29 -30.5 71q0 43 30 71t75 28q44 0 73.5 -28t29.5 -71q0 -42 -29.5 -71t-73.5 -29t-74.5 29zM324 -187.5q-50 36.5 -50 100.5v5q0 23 8 34q9 12 30 12h120v-48q0 -44 31 -44q18 0 24.5 16.5t6.5 59.5v482q0 24 -6.5 32.5t-25.5 14.5l-15 5
q-24 8 -29 12l3 79h256v-583q0 -105 -53.5 -159.5t-157.5 -54.5q-92 0 -142 36.5z" />
    <glyph glyph-name="imacron" unicode="&#x12b;" horiz-adv-x="363" 
d="M22 79q10 5 31 12l15 5q19 7 25 16t6 31v287q0 24 -6.5 32.5t-25.5 14.5l-15 5q-24 8 -29 12l3 79h256v-430q0 -21 6.5 -31t24.5 -16l15 -5q21 -7 31 -12l-3 -79h-331zM24 762h316v-117h-316v117z" />
    <glyph glyph-name="iogonek" unicode="&#x12f;" horiz-adv-x="363" 
d="M107.5 651q-30.5 29 -30.5 71q0 43 30 71t75 28q44 0 73.5 -28t29.5 -71q0 -42 -29.5 -71t-73.5 -29t-74.5 29zM22 79q10 5 31 12l15 5q19 7 25 16t6 31v287q0 24 -6.5 32.5t-25.5 14.5l-15 5q-24 8 -29 12l3 79h256v-430q0 -21 6.5 -31t24.5 -16l15 -5q21 -7 31 -12
l-3 -79h-331zM121.5 -190q-33.5 27 -33.5 76q0 34 22 66t57 53h113q-51 -43 -51 -93q0 -15 7 -24t21 -9t24.5 6.5t24.5 20.5l49 -68q-31 -28 -63.5 -41.5t-75.5 -13.5q-61 0 -94.5 27z" />
    <glyph glyph-name="itilde" unicode="&#x129;" horiz-adv-x="363" 
d="M22 79q10 5 31 12l15 5q19 7 25 16t6 31v287q0 24 -6.5 32.5t-25.5 14.5l-15 5q-24 8 -29 12l3 79h256v-430q0 -21 6.5 -31t24.5 -16l15 -5q21 -7 31 -12l-3 -79h-331zM-9 668q10 61 43.5 101t78.5 40q24 0 44 -8.5t46 -25.5q17 -11 28 -16.5t21 -5.5q15 0 24.5 13
t15.5 38l86 -30q-9 -56 -40.5 -100.5t-71.5 -44.5q-23 0 -42 8t-44 22q-20 11 -32 16t-23 5q-39 0 -50 -48z" />
    <glyph glyph-name="j" unicode="j" horiz-adv-x="338" 
d="M120.5 651q-30.5 29 -30.5 71q0 43 30 71t75 28q44 0 73.5 -28t29.5 -71q0 -42 -29.5 -71t-73.5 -29t-74.5 29zM-59 -187.5q-50 36.5 -50 100.5v5q0 23 8 34q9 12 30 12h120v-48q0 -44 31 -44q18 0 24.5 16.5t6.5 59.5v482q0 24 -6.5 32.5t-25.5 14.5l-15 5q-24 8 -29 12
l3 79h256v-583q0 -105 -53.5 -159.5t-157.5 -54.5q-92 0 -142 36.5z" />
    <glyph glyph-name="uni0237" unicode="&#x237;" horiz-adv-x="338" 
d="M-59 -187.5q-50 36.5 -50 100.5v5q0 23 8 34q9 12 30 12h120v-48q0 -44 31 -44q18 0 24.5 16.5t6.5 59.5v482q0 24 -6.5 32.5t-25.5 14.5l-15 5q-24 8 -29 12l3 79h256v-583q0 -105 -53.5 -159.5t-157.5 -54.5q-92 0 -142 36.5z" />
    <glyph glyph-name="uni006A0301" horiz-adv-x="338" 
d="M-59 -187.5q-50 36.5 -50 100.5v5q0 23 8 34q9 12 30 12h120v-48q0 -44 31 -44q18 0 24.5 16.5t6.5 59.5v482q0 24 -6.5 32.5t-25.5 14.5l-15 5q-24 8 -29 12l3 79h256v-583q0 -105 -53.5 -159.5t-157.5 -54.5q-92 0 -142 36.5zM78 681l168 192l108 -109l-192 -153z" />
    <glyph glyph-name="jcircumflex" unicode="&#x135;" horiz-adv-x="338" 
d="M-59 -187.5q-50 36.5 -50 100.5v5q0 23 8 34q9 12 30 12h120v-48q0 -44 31 -44q18 0 24.5 16.5t6.5 59.5v482q0 24 -6.5 32.5t-25.5 14.5l-15 5q-24 8 -29 12l3 79h256v-583q0 -105 -53.5 -159.5t-157.5 -54.5q-92 0 -142 36.5zM6 680l120 153h119l121 -154l-83 -60
l-97 106l-97 -106z" />
    <glyph glyph-name="k" unicode="k" horiz-adv-x="680" 
d="M663 81l-3 -81h-212l-131 228q-3 6 -8 6q-4 0 -8 -4l-15 -15q-9 -9 -9 -21v-51q0 -21 6.5 -31t24.5 -16l15 -5q21 -7 31 -12l-3 -79h-331l-3 79q10 5 31 12l15 5q19 7 25 16t6 31v502q0 24 -6.5 32.5t-25.5 14.5l-15 5q-24 8 -29 12l3 79h256v-449l110 109q6 8 6 15
q0 12 -16 16l-9 3q-17 5 -28 12l3 79h296l3 -79q-9 -6 -28 -12l-16 -4q-18 -5 -36 -17t-45 -38l-61 -62q-3 -3 -3 -7q0 -3 3 -9l117 -202q14 -22 24.5 -32t22.5 -14l15 -5q21 -6 28 -11z" />
    <glyph glyph-name="kcommaaccent" unicode="&#x137;" horiz-adv-x="680" 
d="M663 81l-3 -81h-212l-131 228q-3 6 -8 6q-4 0 -8 -4l-15 -15q-9 -9 -9 -21v-51q0 -21 6.5 -31t24.5 -16l15 -5q21 -7 31 -12l-3 -79h-331l-3 79q10 5 31 12l15 5q19 7 25 16t6 31v502q0 24 -6.5 32.5t-25.5 14.5l-15 5q-24 8 -29 12l3 79h256v-449l110 109q6 8 6 15
q0 12 -16 16l-9 3q-17 5 -28 12l3 79h296l3 -79q-9 -6 -28 -12l-16 -4q-18 -5 -36 -17t-45 -38l-61 -62q-3 -3 -3 -7q0 -3 3 -9l117 -202q14 -22 24.5 -32t22.5 -14l15 -5q21 -6 28 -11zM274 -303q26 19 42 39.5t16 38.5q0 7 -4 13t-12 13q-13 12 -20 23t-7 31q0 31 23 51
t60 20q42 0 69.5 -30t27.5 -78q0 -42 -31.5 -92.5t-84.5 -85.5z" />
    <glyph glyph-name="kgreenlandic" unicode="&#x138;" horiz-adv-x="681" 
d="M664 81l-3 -81h-212l-131 228q-3 6 -8 6q-4 0 -8 -4l-15 -15q-9 -9 -9 -21v-51q0 -21 6.5 -31t24.5 -16l15 -5q21 -7 31 -12l-3 -79h-331l-3 79q10 5 31 12l15 5q19 7 25 16t6 31v287q0 24 -6.5 32.5t-25.5 14.5l-15 5q-24 8 -29 12l3 79h256v-234l110 109q6 8 6 15
q0 12 -16 16l-9 3q-18 5 -28 12l3 79h296l3 -79q-9 -6 -28 -12l-16 -4q-18 -4 -34 -15t-47 -40l-61 -62q-3 -3 -3 -7q0 -3 3 -9l117 -202q14 -22 24.5 -32t22.5 -14l15 -5q21 -6 28 -11z" />
    <glyph glyph-name="l" unicode="l" horiz-adv-x="366" 
d="M17 79q10 5 31 12l15 5q19 7 25 16t6 31v502q0 24 -6.5 32.5t-25.5 14.5l-15 5q-24 8 -29 12l3 79h256v-645q0 -21 6.5 -31t24.5 -16l15 -5q21 -7 31 -12l-3 -79h-331z" />
    <glyph glyph-name="lacute" unicode="&#x13a;" horiz-adv-x="366" 
d="M17 79q10 5 31 12l15 5q19 7 25 16t6 31v502q0 24 -6.5 32.5t-25.5 14.5l-15 5q-24 8 -29 12l3 79h256v-645q0 -21 6.5 -31t24.5 -16l15 -5q21 -7 31 -12l-3 -79h-331zM17 926l243 141l72 -137l-265 -100z" />
    <glyph glyph-name="lcaron" unicode="&#x13e;" horiz-adv-x="366" 
d="M17 79q10 5 31 12l15 5q19 7 25 16t6 31v502q0 24 -6.5 32.5t-25.5 14.5l-15 5q-24 8 -29 12l3 79h256v-645q0 -21 6.5 -31t24.5 -16l15 -5q21 -7 31 -12l-3 -79h-331zM314 573q53 45 53 78q0 13 -15 30q-11 13 -17 25t-6 30q0 28 22 46t53 18q39 0 63.5 -26t24.5 -71
q0 -44 -28 -94.5t-78 -89.5z" />
    <glyph glyph-name="lcommaaccent" unicode="&#x13c;" horiz-adv-x="366" 
d="M17 79q10 5 31 12l15 5q19 7 25 16t6 31v502q0 24 -6.5 32.5t-25.5 14.5l-15 5q-24 8 -29 12l3 79h256v-645q0 -21 6.5 -31t24.5 -16l15 -5q21 -7 31 -12l-3 -79h-331zM88 -303q26 19 42 39.5t16 38.5q0 7 -4 13t-12 13q-13 12 -20 23t-7 31q0 31 23 51t60 20
q42 0 69.5 -30t27.5 -78q0 -42 -31.5 -92.5t-84.5 -85.5z" />
    <glyph glyph-name="ldot" unicode="&#x140;" horiz-adv-x="498" 
d="M17 79q10 5 31 12l15 5q19 7 25 16t6 31v502q0 24 -6.5 32.5t-25.5 14.5l-15 5q-24 8 -29 12l3 79h256v-645q0 -21 6.5 -31t24.5 -16l15 -5q21 -7 31 -12l-3 -79h-331zM359 337q-31 31 -31 76q0 44 31 74.5t76 30.5q44 0 74.5 -30.5t30.5 -74.5q0 -45 -30.5 -76
t-74.5 -31q-45 0 -76 31z" />
    <glyph glyph-name="lslash" unicode="&#x142;" horiz-adv-x="421" 
d="M341 91q21 -7 31 -12l-3 -79h-331l-3 79q10 5 31 12l15 5q19 7 25 16t6 31v185l-59 -32l-51 102l110 59v188q0 24 -6.5 32.5t-25.5 14.5l-15 5q-24 8 -29 12l3 79h256v-233l61 33l50 -101l-111 -60v-284q0 -21 6.5 -31t24.5 -16z" />
    <glyph glyph-name="m" unicode="m" horiz-adv-x="1012" 
d="M988 79l-3 -79h-240v349q0 54 -14 80.5t-48 26.5q-80 0 -80 -143v-170q0 -24 4.5 -33.5t17.5 -14.5l11 -4q11 -4 27 -12l-3 -79h-240v349q0 54 -14 80.5t-48 26.5q-37 0 -58.5 -35.5t-21.5 -107.5v-170q0 -21 6.5 -31t24.5 -16l15 -5q21 -7 31 -12l-3 -79h-331l-3 79
q10 5 31 12l15 5q19 7 25 16t6 31v287q0 24 -6.5 32.5t-25.5 14.5l-15 5q-24 8 -29 12l3 79h248v-55q64 67 153 67q52 0 92 -22t63 -63q66 85 170 85q81 0 130.5 -51.5t49.5 -140.5v-250q0 -24 4.5 -33.5t17.5 -14.5l11 -4q11 -4 27 -12z" />
    <glyph glyph-name="n" unicode="n" horiz-adv-x="699" 
d="M675 79l-3 -79h-240v349q0 54 -15 80.5t-52 26.5q-43 0 -65 -34.5t-22 -108.5v-170q0 -21 6.5 -31t24.5 -16l15 -5q21 -7 31 -12l-3 -79h-331l-3 79q10 5 31 12l15 5q19 7 25 16t6 31v287q0 24 -6.5 32.5t-25.5 14.5l-15 5q-24 8 -29 12l3 79h248v-55q73 67 165 67
q82 0 131 -51t49 -141v-250q0 -24 4.5 -33.5t17.5 -14.5l11 -4q11 -4 27 -12z" />
    <glyph glyph-name="nacute" unicode="&#x144;" horiz-adv-x="699" 
d="M675 79l-3 -79h-240v349q0 54 -15 80.5t-52 26.5q-43 0 -65 -34.5t-22 -108.5v-170q0 -21 6.5 -31t24.5 -16l15 -5q21 -7 31 -12l-3 -79h-331l-3 79q10 5 31 12l15 5q19 7 25 16t6 31v287q0 24 -6.5 32.5t-25.5 14.5l-15 5q-24 8 -29 12l3 79h248v-55q73 67 165 67
q82 0 131 -51t49 -141v-250q0 -24 4.5 -33.5t17.5 -14.5l11 -4q11 -4 27 -12zM240 705l201 168l100 -114l-235 -140z" />
    <glyph glyph-name="ncaron" unicode="&#x148;" horiz-adv-x="699" 
d="M675 79l-3 -79h-240v349q0 54 -15 80.5t-52 26.5q-43 0 -65 -34.5t-22 -108.5v-170q0 -21 6.5 -31t24.5 -16l15 -5q21 -7 31 -12l-3 -79h-331l-3 79q10 5 31 12l15 5q19 7 25 16t6 31v287q0 24 -6.5 32.5t-25.5 14.5l-15 5q-24 8 -29 12l3 79h248v-55q73 67 165 67
q82 0 131 -51t49 -141v-250q0 -24 4.5 -33.5t17.5 -14.5l11 -4q11 -4 27 -12zM158 775l75 73l123 -101l123 101l75 -73l-144 -139h-109z" />
    <glyph glyph-name="ncommaaccent" unicode="&#x146;" horiz-adv-x="699" 
d="M675 79l-3 -79h-240v349q0 54 -15 80.5t-52 26.5q-43 0 -65 -34.5t-22 -108.5v-170q0 -21 6.5 -31t24.5 -16l15 -5q21 -7 31 -12l-3 -79h-331l-3 79q10 5 31 12l15 5q19 7 25 16t6 31v287q0 24 -6.5 32.5t-25.5 14.5l-15 5q-24 8 -29 12l3 79h248v-55q73 67 165 67
q82 0 131 -51t49 -141v-250q0 -24 4.5 -33.5t17.5 -14.5l11 -4q11 -4 27 -12zM248 -303q26 19 42 39.5t16 38.5q0 7 -4 13t-12 13q-13 12 -20 23t-7 31q0 31 23 51t60 20q42 0 69.5 -30t27.5 -78q0 -42 -31.5 -92.5t-84.5 -85.5z" />
    <glyph glyph-name="eng" unicode="&#x14b;" horiz-adv-x="659" 
d="M18 79q10 5 31 12l15 5q19 7 25 16t6 31v287q0 24 -6.5 32.5t-25.5 14.5l-15 5q-22 7 -29 12l3 79h248v-55q73 67 165 67q82 0 131 -51t49 -141v-393q0 -114 -43 -169t-137 -55q-28 0 -58.5 2.5t-47.5 6.5v118q9 -2 23 -3t27 -1q27 0 40 20.5t13 71.5v358q0 54 -15 80.5
t-52 26.5q-43 0 -65 -34.5t-22 -108.5v-170q0 -21 6.5 -31t24.5 -16l15 -5q21 -7 31 -12l-3 -79h-331z" />
    <glyph glyph-name="ntilde" unicode="&#xf1;" horiz-adv-x="699" 
d="M675 79l-3 -79h-240v349q0 54 -15 80.5t-52 26.5q-43 0 -65 -34.5t-22 -108.5v-170q0 -21 6.5 -31t24.5 -16l15 -5q21 -7 31 -12l-3 -79h-331l-3 79q10 5 31 12l15 5q19 7 25 16t6 31v287q0 24 -6.5 32.5t-25.5 14.5l-15 5q-24 8 -29 12l3 79h248v-55q73 67 165 67
q82 0 131 -51t49 -141v-250q0 -24 4.5 -33.5t17.5 -14.5l11 -4q11 -4 27 -12zM139 685q16 57 53.5 90.5t87.5 33.5q25 0 46.5 -8.5t46.5 -24.5q20 -12 34 -18t27 -6q21 0 36 16t24 43l79 -57q-14 -54 -49.5 -89.5t-84.5 -35.5q-29 0 -50.5 9t-46.5 25q-18 11 -30 16.5
t-25 5.5q-22 0 -39 -15.5t-27 -42.5z" />
    <glyph glyph-name="o" unicode="o" horiz-adv-x="640" 
d="M166.5 25q-66.5 37 -102.5 104.5t-36 157.5t37.5 157.5t104 104t153.5 36.5t152.5 -36.5t101 -103.5t35.5 -158q0 -90 -37 -157.5t-103.5 -104.5t-151.5 -37q-87 0 -153.5 37zM425 287q0 190 -102 190q-108 0 -108 -190q0 -93 25.5 -142t81.5 -49q103 0 103 191z" />
    <glyph glyph-name="oacute" unicode="&#xf3;" horiz-adv-x="640" 
d="M166.5 25q-66.5 37 -102.5 104.5t-36 157.5t37.5 157.5t104 104t153.5 36.5t152.5 -36.5t101 -103.5t35.5 -158q0 -90 -37 -157.5t-103.5 -104.5t-151.5 -37q-87 0 -153.5 37zM425 287q0 190 -102 190q-108 0 -108 -190q0 -93 25.5 -142t81.5 -49q103 0 103 191zM206 705
l201 168l100 -114l-235 -140z" />
    <glyph glyph-name="obreve" unicode="&#x14f;" horiz-adv-x="640" 
d="M166.5 25q-66.5 37 -102.5 104.5t-36 157.5t37.5 157.5t104 104t153.5 36.5t152.5 -36.5t101 -103.5t35.5 -158q0 -90 -37 -157.5t-103.5 -104.5t-151.5 -37q-87 0 -153.5 37zM425 287q0 190 -102 190q-108 0 -108 -190q0 -93 25.5 -142t81.5 -49q103 0 103 191z
M231 642.5q-42 20.5 -68 60.5t-28 96h123q2 -32 19 -49.5t45 -17.5t45.5 17.5t19.5 49.5h121q-2 -56 -28.5 -96t-68.5 -60.5t-90 -20.5t-90 20.5z" />
    <glyph glyph-name="ocircumflex" unicode="&#xf4;" horiz-adv-x="640" 
d="M166.5 25q-66.5 37 -102.5 104.5t-36 157.5t37.5 157.5t104 104t153.5 36.5t152.5 -36.5t101 -103.5t35.5 -158q0 -90 -37 -157.5t-103.5 -104.5t-151.5 -37q-87 0 -153.5 37zM425 287q0 190 -102 190q-108 0 -108 -190q0 -93 25.5 -142t81.5 -49q103 0 103 191zM124 691
l143 143h109l142 -143l-73 -73l-123 105l-123 -105z" />
    <glyph glyph-name="odieresis" unicode="&#xf6;" horiz-adv-x="640" 
d="M166.5 25q-66.5 37 -102.5 104.5t-36 157.5t37.5 157.5t104 104t153.5 36.5t152.5 -36.5t101 -103.5t35.5 -158q0 -90 -37 -157.5t-103.5 -104.5t-151.5 -37q-87 0 -153.5 37zM425 287q0 190 -102 190q-108 0 -108 -190q0 -93 25.5 -142t81.5 -49q103 0 103 191z
M148.5 664.5q-25.5 25.5 -25.5 60.5t25.5 60.5t60.5 25.5t60.5 -25.5t25.5 -60.5t-25.5 -60.5t-60.5 -25.5t-60.5 25.5zM374.5 664.5q-25.5 25.5 -25.5 60.5t25.5 60.5t60.5 25.5t60.5 -25.5t25.5 -60.5t-25.5 -60.5t-60.5 -25.5t-60.5 25.5z" />
    <glyph glyph-name="ograve" unicode="&#xf2;" horiz-adv-x="640" 
d="M166.5 25q-66.5 37 -102.5 104.5t-36 157.5t37.5 157.5t104 104t153.5 36.5t152.5 -36.5t101 -103.5t35.5 -158q0 -90 -37 -157.5t-103.5 -104.5t-151.5 -37q-87 0 -153.5 37zM425 287q0 190 -102 190q-108 0 -108 -190q0 -93 25.5 -142t81.5 -49q103 0 103 191zM149 759
l100 114l201 -168l-66 -86z" />
    <glyph glyph-name="ohungarumlaut" unicode="&#x151;" horiz-adv-x="640" 
d="M166.5 25q-66.5 37 -102.5 104.5t-36 157.5t37.5 157.5t104 104t153.5 36.5t152.5 -36.5t101 -103.5t35.5 -158q0 -90 -37 -157.5t-103.5 -104.5t-151.5 -37q-87 0 -153.5 37zM425 287q0 190 -102 190q-108 0 -108 -190q0 -93 25.5 -142t81.5 -49q103 0 103 191zM96 676
l167 194l113 -83l-198 -185zM353 676l167 194l113 -83l-198 -185z" />
    <glyph glyph-name="omacron" unicode="&#x14d;" horiz-adv-x="640" 
d="M166.5 25q-66.5 37 -102.5 104.5t-36 157.5t37.5 157.5t104 104t153.5 36.5t152.5 -36.5t101 -103.5t35.5 -158q0 -90 -37 -157.5t-103.5 -104.5t-151.5 -37q-87 0 -153.5 37zM425 287q0 190 -102 190q-108 0 -108 -190q0 -93 25.5 -142t81.5 -49q103 0 103 191zM127 762
h390v-117h-390v117z" />
    <glyph glyph-name="oslash" unicode="&#xf8;" horiz-adv-x="640" 
d="M587 422q25 -59 25 -135q0 -90 -37 -157.5t-103.5 -104.5t-151.5 -37q-54 0 -96 13l-50 -89l-93 50l49 87q-49 39 -75.5 100t-26.5 138q0 90 37.5 157.5t104 104t153.5 36.5q52 0 100 -14l42 75l93 -50l-42 -75q46 -40 71 -99zM220 210l144 257q-16 10 -41 10
q-108 0 -108 -190q0 -39 5 -77zM425 287q0 40 -4 65l-139 -248q18 -8 40 -8q103 0 103 191z" />
    <glyph glyph-name="oslashacute" unicode="&#x1ff;" horiz-adv-x="640" 
d="M587 422q25 -59 25 -135q0 -90 -37 -157.5t-103.5 -104.5t-151.5 -37q-54 0 -96 13l-50 -89l-93 50l49 87q-49 39 -75.5 100t-26.5 138q0 90 37.5 157.5t104 104t153.5 36.5q52 0 100 -14l42 75l93 -50l-42 -75q46 -40 71 -99zM220 210l144 257q-16 10 -41 10
q-108 0 -108 -190q0 -39 5 -77zM425 287q0 40 -4 65l-139 -248q18 -8 40 -8q103 0 103 191zM193 705l201 168l100 -114l-235 -140z" />
    <glyph glyph-name="otilde" unicode="&#xf5;" horiz-adv-x="640" 
d="M166.5 25q-66.5 37 -102.5 104.5t-36 157.5t37.5 157.5t104 104t153.5 36.5t152.5 -36.5t101 -103.5t35.5 -158q0 -90 -37 -157.5t-103.5 -104.5t-151.5 -37q-87 0 -153.5 37zM425 287q0 190 -102 190q-108 0 -108 -190q0 -93 25.5 -142t81.5 -49q103 0 103 191zM105 685
q16 57 53.5 90.5t87.5 33.5q25 0 46.5 -8.5t46.5 -24.5q20 -12 34 -18t27 -6q21 0 36 16t24 43l79 -57q-14 -54 -49.5 -89.5t-84.5 -35.5q-29 0 -50.5 9t-46.5 25q-18 11 -30 16.5t-25 5.5q-22 0 -39 -15.5t-27 -42.5z" />
    <glyph glyph-name="oe" unicode="&#x153;" horiz-adv-x="1011" 
d="M162.5 25q-64.5 37 -99.5 104.5t-35 157.5t36 157.5t101 104t149 36.5q60 0 113 -23t87 -62q32 38 84.5 61.5t112.5 23.5q70 0 124 -30.5t87 -84.5q17 -28 29.5 -59t12.5 -50q0 -13 -6.5 -22t-21.5 -18q-52 -33 -146 -67t-168 -50q-14 -3 -13 -15q4 -32 31 -56t87 -24
q47 0 91 20.5t81 59.5l70 -74q-50 -62 -112.5 -94.5t-151.5 -32.5q-63 0 -116 22t-79 62q-36 -43 -84.5 -63.5t-114.5 -20.5q-84 0 -148.5 37zM675 317.5q49 14.5 83 30.5q12 5 17 10.5t5 12.5q0 21 -14 52q-12 27 -32 44t-47 17q-48 0 -71 -37.5t-23 -100.5q0 -15 2 -31
q1 -7 4 -9.5t10 -2.5q17 0 66 14.5zM425 287q0 190 -102 190q-108 0 -108 -190q0 -93 25.5 -142t81.5 -49q103 0 103 191z" />
    <glyph glyph-name="p" unicode="p" horiz-adv-x="673" 
d="M539 548q51 -37 78.5 -104.5t27.5 -156.5q0 -138 -62.5 -218.5t-174.5 -80.5q-38 0 -74 13.5t-64 37.5v-108q0 -20 9 -30.5t29 -16.5l15 -5l33 -12l-3 -79h-340l-3 79q10 5 31 12l15 5q19 7 25 16t6 31v499q0 24 -6.5 32.5t-25.5 14.5l-15 5q-22 7 -29 12l3 79h248v-55
q64 67 158 67q68 0 119 -37zM437 141.5q21 48.5 21 145.5q0 95 -20 142.5t-67 47.5q-51 0 -76 -49t-25 -141q0 -194 98 -194q48 0 69 48.5z" />
    <glyph glyph-name="thorn" unicode="&#xfe;" horiz-adv-x="673" 
d="M539 548q51 -37 78.5 -104.5t27.5 -156.5q0 -138 -62.5 -218.5t-174.5 -80.5q-38 0 -74 13.5t-64 37.5v-108q0 -20 9 -30.5t29 -16.5l15 -5l33 -12l-3 -79h-340l-3 79q10 5 31 12l15 5q19 7 25 16t6 31v714q0 24 -6.5 32.5t-25.5 14.5l-15 5q-22 7 -29 12l3 79h256v-261
q30 28 68 43t82 15q68 0 119 -37zM437 141.5q21 48.5 21 145.5q0 95 -20 142.5t-67 47.5q-51 0 -76 -49t-25 -141q0 -194 98 -194q48 0 69 48.5z" />
    <glyph glyph-name="q" unicode="q" horiz-adv-x="636" 
d="M313 -134q13 6 40 13l17 5q19 6 25 15.5t6 31.5v114q-25 -28 -58.5 -42.5t-73.5 -14.5q-69 0 -124 35.5t-86 103t-31 159.5q0 89 31 156.5t85.5 105t124.5 37.5q50 0 88.5 -21.5t60.5 -58.5l16 68h150v-642q0 -21 6 -31.5t22 -15.5l18 -6l30 -11l-3 -79h-340zM379 140.5
q22 44.5 22 145.5q0 104 -21 147.5t-69 43.5t-72.5 -49t-24.5 -142q0 -94 24.5 -142t71.5 -48t69 44.5z" />
    <glyph glyph-name="r" unicode="r" horiz-adv-x="570" 
d="M516 548q34 -37 34 -102v-9q0 -34 -12 -47q-11 -13 -36 -13h-126l-3 30q-2 20 -8 30t-21 10q-30 0 -48.5 -51t-18.5 -134v-119q0 -21 7 -31.5t24 -15.5l17 -5q22 -5 35 -12l-3 -79h-331l-3 79q12 6 30 12l15 5q15 5 20.5 15t5.5 32v287q0 24 -6.5 32.5t-25.5 14.5l-15 5
q-22 7 -29 12l3 79h248v-74q28 41 67.5 63.5t88.5 22.5q57 0 91 -37z" />
    <glyph glyph-name="racute" unicode="&#x155;" horiz-adv-x="570" 
d="M516 548q34 -37 34 -102v-9q0 -34 -12 -47q-11 -13 -36 -13h-126l-3 30q-2 20 -8 30t-21 10q-30 0 -48.5 -51t-18.5 -134v-119q0 -21 7 -31.5t24 -15.5l17 -5q22 -5 35 -12l-3 -79h-331l-3 79q12 6 30 12l15 5q15 5 20.5 15t5.5 32v287q0 24 -6.5 32.5t-25.5 14.5l-15 5
q-22 7 -29 12l3 79h248v-74q28 41 67.5 63.5t88.5 22.5q57 0 91 -37zM181 705l201 168l100 -114l-235 -140z" />
    <glyph glyph-name="rcaron" unicode="&#x159;" horiz-adv-x="570" 
d="M516 548q34 -37 34 -102v-9q0 -34 -12 -47q-11 -13 -36 -13h-126l-3 30q-2 20 -8 30t-21 10q-30 0 -48.5 -51t-18.5 -134v-119q0 -21 7 -31.5t24 -15.5l17 -5q22 -5 35 -12l-3 -79h-331l-3 79q12 6 30 12l15 5q15 5 20.5 15t5.5 32v287q0 24 -6.5 32.5t-25.5 14.5l-15 5
q-22 7 -29 12l3 79h248v-74q28 41 67.5 63.5t88.5 22.5q57 0 91 -37zM99 775l75 73l123 -101l123 101l75 -73l-144 -139h-109z" />
    <glyph glyph-name="rcommaaccent" unicode="&#x157;" horiz-adv-x="570" 
d="M516 548q34 -37 34 -102v-9q0 -34 -12 -47q-11 -13 -36 -13h-126l-3 30q-2 20 -8 30t-21 10q-30 0 -48.5 -51t-18.5 -134v-119q0 -21 7 -31.5t24 -15.5l17 -5q22 -5 35 -12l-3 -79h-331l-3 79q12 6 30 12l15 5q15 5 20.5 15t5.5 32v287q0 24 -6.5 32.5t-25.5 14.5l-15 5
q-22 7 -29 12l3 79h248v-74q28 41 67.5 63.5t88.5 22.5q57 0 91 -37zM93 -303q26 19 42 39.5t16 38.5q0 7 -4 13t-12 13q-13 12 -20 23t-7 31q0 31 23 51t60 20q42 0 69.5 -30t27.5 -78q0 -42 -31.5 -92.5t-84.5 -85.5z" />
    <glyph glyph-name="s" unicode="s" horiz-adv-x="551" 
d="M166 33q-3 3 -6 3q-4 0 -6 -8l-5 -28h-108v211h116l2 -27q3 -44 31 -68t78 -24q33 0 50.5 12t17.5 35q0 22 -19.5 40.5t-75.5 41.5l-60 25q-72 30 -106.5 71t-34.5 104q0 48 25 85.5t70 58t103 20.5q47 0 79 -10t56 -29q9 -7 10 3l3 27h109v-185h-116l-3 18
q-6 37 -30.5 56.5t-62.5 19.5q-32 0 -48.5 -12t-16.5 -33q0 -16 8.5 -27t28.5 -21t62 -28l59 -27q73 -36 106 -75.5t33 -99.5q0 -51 -25 -90.5t-69.5 -61.5t-100.5 -22q-99 0 -154 45z" />
    <glyph glyph-name="sacute" unicode="&#x15b;" horiz-adv-x="551" 
d="M166 33q-3 3 -6 3q-4 0 -6 -8l-5 -28h-108v211h116l2 -27q3 -44 31 -68t78 -24q33 0 50.5 12t17.5 35q0 22 -19.5 40.5t-75.5 41.5l-60 25q-72 30 -106.5 71t-34.5 104q0 48 25 85.5t70 58t103 20.5q47 0 79 -10t56 -29q9 -7 10 3l3 27h109v-185h-116l-3 18
q-6 37 -30.5 56.5t-62.5 19.5q-32 0 -48.5 -12t-16.5 -33q0 -16 8.5 -27t28.5 -21t62 -28l59 -27q73 -36 106 -75.5t33 -99.5q0 -51 -25 -90.5t-69.5 -61.5t-100.5 -22q-99 0 -154 45zM150 705l201 168l100 -114l-235 -140z" />
    <glyph glyph-name="scaron" unicode="&#x161;" horiz-adv-x="551" 
d="M166 33q-3 3 -6 3q-4 0 -6 -8l-5 -28h-108v211h116l2 -27q3 -44 31 -68t78 -24q33 0 50.5 12t17.5 35q0 22 -19.5 40.5t-75.5 41.5l-60 25q-72 30 -106.5 71t-34.5 104q0 48 25 85.5t70 58t103 20.5q47 0 79 -10t56 -29q9 -7 10 3l3 27h109v-185h-116l-3 18
q-6 37 -30.5 56.5t-62.5 19.5q-32 0 -48.5 -12t-16.5 -33q0 -16 8.5 -27t28.5 -21t62 -28l59 -27q73 -36 106 -75.5t33 -99.5q0 -51 -25 -90.5t-69.5 -61.5t-100.5 -22q-99 0 -154 45zM68 775l75 73l123 -101l123 101l75 -73l-144 -139h-109z" />
    <glyph glyph-name="scedilla" unicode="&#x15f;" horiz-adv-x="551" 
d="M166 33q-3 3 -6 3q-4 0 -6 -8l-5 -28h-108v211h116l2 -27q3 -44 31 -68t78 -24q33 0 50.5 12t17.5 35q0 22 -19.5 40.5t-75.5 41.5l-60 25q-72 30 -106.5 71t-34.5 104q0 48 25 85.5t70 58t103 20.5q47 0 79 -10t56 -29q9 -7 10 3l3 27h109v-185h-116l-3 18
q-6 37 -30.5 56.5t-62.5 19.5q-32 0 -48.5 -12t-16.5 -33q0 -16 8.5 -27t28.5 -21t62 -28l59 -27q73 -36 106 -75.5t33 -99.5q0 -51 -25 -90.5t-69.5 -61.5t-100.5 -22q-99 0 -154 45zM193 -217.5q-35 9.5 -58 24.5l28 76q39 -26 73 -26q16 0 25 7.5t9 21.5q0 36 -73 46
l32 70h85l-12 -27q47 -11 74.5 -38.5t27.5 -66.5q0 -41 -35 -69t-101 -28q-40 0 -75 9.5z" />
    <glyph glyph-name="scircumflex" unicode="&#x15d;" horiz-adv-x="551" 
d="M166 33q-3 3 -6 3q-4 0 -6 -8l-5 -28h-108v211h116l2 -27q3 -44 31 -68t78 -24q33 0 50.5 12t17.5 35q0 22 -19.5 40.5t-75.5 41.5l-60 25q-72 30 -106.5 71t-34.5 104q0 48 25 85.5t70 58t103 20.5q47 0 79 -10t56 -29q9 -7 10 3l3 27h109v-185h-116l-3 18
q-6 37 -30.5 56.5t-62.5 19.5q-32 0 -48.5 -12t-16.5 -33q0 -16 8.5 -27t28.5 -21t62 -28l59 -27q73 -36 106 -75.5t33 -99.5q0 -51 -25 -90.5t-69.5 -61.5t-100.5 -22q-99 0 -154 45zM68 691l143 143h109l142 -143l-73 -73l-123 105l-123 -105z" />
    <glyph glyph-name="scommaaccent" unicode="&#x219;" horiz-adv-x="551" 
d="M166 33q-3 3 -6 3q-4 0 -6 -8l-5 -28h-108v211h116l2 -27q3 -44 31 -68t78 -24q33 0 50.5 12t17.5 35q0 22 -19.5 40.5t-75.5 41.5l-60 25q-72 30 -106.5 71t-34.5 104q0 48 25 85.5t70 58t103 20.5q47 0 79 -10t56 -29q9 -7 10 3l3 27h109v-185h-116l-3 18
q-6 37 -30.5 56.5t-62.5 19.5q-32 0 -48.5 -12t-16.5 -33q0 -16 8.5 -27t28.5 -21t62 -28l59 -27q73 -36 106 -75.5t33 -99.5q0 -51 -25 -90.5t-69.5 -61.5t-100.5 -22q-99 0 -154 45zM173 -303q26 19 42 39.5t16 38.5q0 7 -4 13t-12 13q-13 12 -20 23t-7 31q0 31 23 51
t60 20q42 0 69.5 -30t27.5 -78q0 -42 -31.5 -92.5t-84.5 -85.5z" />
    <glyph glyph-name="germandbls" unicode="&#xdf;" horiz-adv-x="733" 
d="M447 26q-8 7 -10 -4l-4 -22h-92v188h106l3 -33q3 -34 18.5 -50t38.5 -16q16 0 27.5 11t11.5 30q0 23 -19 47.5t-75 72.5l-33 28q-41 36 -60.5 68t-19.5 75q0 35 10.5 58t32.5 53q21 28 31.5 50t10.5 54q0 31 -16.5 50.5t-45.5 19.5q-35 0 -54.5 -23t-19.5 -72v-611h-257
l-3 79q10 5 31 12l15 5q19 7 25 16t6 31v309h-87v121h87v20q0 101 67.5 154t192.5 53q74 0 129 -21.5t85 -59.5t30 -85q0 -35 -15 -60t-43 -55q-21 -22 -31 -37t-10 -32q0 -20 12.5 -35.5t52.5 -48.5l28 -23q60 -50 87.5 -95.5t27.5 -104.5q0 -45 -22 -80.5t-57 -55
t-71 -19.5q-76 0 -121 38z" />
    <glyph glyph-name="longs" unicode="&#x17f;" horiz-adv-x="429" 
d="M28 79q10 5 31 12l15 5q19 7 25 16t6 31v309h-87v121h87v55q0 82 54 127t157 45q92 0 141.5 -36t49.5 -106v-5q0 -17 -7 -23q-10 -8 -25 -8h-125v37q0 24 -7.5 35.5t-23.5 11.5t-23.5 -11t-7.5 -38v-514q0 -21 6.5 -31t24.5 -16l15 -5q21 -7 31 -12l-3 -79h-331z" />
    <glyph glyph-name="t" unicode="t" horiz-adv-x="461" 
d="M87 134v318h-79v111l46 11q29 6 39.5 15.5t16.5 31.5l34 117h126v-165h129v-121h-129v-290q0 -21 8 -31.5t26 -10.5q17 0 35 7.5t42 23.5l57 -86q-85 -77 -188 -77q-163 0 -163 146z" />
    <glyph glyph-name="tbar" unicode="&#x167;" horiz-adv-x="461" 
d="M438 65q-85 -77 -188 -77q-163 0 -163 146v112h-73v120h73v86h-79v111l46 11q29 6 39.5 15.5t16.5 31.5l34 117h126v-165h129v-121h-129v-86h124v-120h-124v-84q0 -21 8 -31.5t26 -10.5q17 0 35 7.5t42 23.5z" />
    <glyph glyph-name="tcaron" unicode="&#x165;" horiz-adv-x="461" 
d="M87 134v318h-79v111l46 11q29 6 39.5 15.5t16.5 31.5l34 117h126v-165h129v-121h-129v-290q0 -21 8 -31.5t26 -10.5q17 0 35 7.5t42 23.5l57 -86q-85 -77 -188 -77q-163 0 -163 146zM311 667q53 45 53 78q0 13 -15 30q-11 13 -17 25t-6 30q0 28 22 46t53 18
q39 0 63.5 -26t24.5 -71q0 -44 -28 -94.5t-78 -89.5z" />
    <glyph glyph-name="uni0163" unicode="&#x163;" horiz-adv-x="461" 
d="M87 134v318h-79v111l46 11q29 6 39.5 15.5t16.5 31.5l34 117h126v-165h129v-121h-129v-290q0 -21 8 -31.5t26 -10.5q17 0 35 7.5t42 23.5l57 -86q-85 -77 -188 -77q-163 0 -163 146zM150 -303q26 19 42 39.5t16 38.5q0 7 -4 13t-12 13q-13 12 -20 23t-7 31q0 31 23 51
t60 20q42 0 69.5 -30t27.5 -78q0 -42 -31.5 -92.5t-84.5 -85.5z" />
    <glyph glyph-name="uni021B" unicode="&#x21b;" horiz-adv-x="461" 
d="M87 134v318h-79v111l46 11q29 6 39.5 15.5t16.5 31.5l34 117h126v-165h129v-121h-129v-290q0 -21 8 -31.5t26 -10.5q17 0 35 7.5t42 23.5l57 -86q-85 -77 -188 -77q-163 0 -163 146zM150 -303q26 19 42 39.5t16 38.5q0 7 -4 13t-12 13q-13 12 -20 23t-7 31q0 31 23 51
t60 20q42 0 69.5 -30t27.5 -78q0 -42 -31.5 -92.5t-84.5 -85.5z" />
    <glyph glyph-name="u" unicode="u" horiz-adv-x="699" 
d="M673 79l-3 -79h-224v61q-59 -73 -169 -73q-91 0 -139.5 51.5t-48.5 147.5v243q0 24 -5 33.5t-19 14.5l-13 4q-22 7 -28 12l3 79h245v-374q0 -92 75 -92q36 0 58 29.5t22 82.5v211q0 24 -5 33.5t-19 14.5l-13 4q-22 7 -28 12l3 79h245v-430q0 -22 4.5 -32t17.5 -15l13 -5
q19 -7 28 -12z" />
    <glyph glyph-name="uacute" unicode="&#xfa;" horiz-adv-x="699" 
d="M673 79l-3 -79h-224v61q-59 -73 -169 -73q-91 0 -139.5 51.5t-48.5 147.5v243q0 24 -5 33.5t-19 14.5l-13 4q-22 7 -28 12l3 79h245v-374q0 -92 75 -92q36 0 58 29.5t22 82.5v211q0 24 -5 33.5t-19 14.5l-13 4q-22 7 -28 12l3 79h245v-430q0 -22 4.5 -32t17.5 -15l13 -5
q19 -7 28 -12zM214 705l201 168l100 -114l-235 -140z" />
    <glyph glyph-name="ubreve" unicode="&#x16d;" horiz-adv-x="699" 
d="M673 79l-3 -79h-224v61q-59 -73 -169 -73q-91 0 -139.5 51.5t-48.5 147.5v243q0 24 -5 33.5t-19 14.5l-13 4q-22 7 -28 12l3 79h245v-374q0 -92 75 -92q36 0 58 29.5t22 82.5v211q0 24 -5 33.5t-19 14.5l-13 4q-22 7 -28 12l3 79h245v-430q0 -22 4.5 -32t17.5 -15l13 -5
q19 -7 28 -12zM239 642.5q-42 20.5 -68 60.5t-28 96h123q2 -32 19 -49.5t45 -17.5t45.5 17.5t19.5 49.5h121q-2 -56 -28.5 -96t-68.5 -60.5t-90 -20.5t-90 20.5z" />
    <glyph glyph-name="ucircumflex" unicode="&#xfb;" horiz-adv-x="699" 
d="M673 79l-3 -79h-224v61q-59 -73 -169 -73q-91 0 -139.5 51.5t-48.5 147.5v243q0 24 -5 33.5t-19 14.5l-13 4q-22 7 -28 12l3 79h245v-374q0 -92 75 -92q36 0 58 29.5t22 82.5v211q0 24 -5 33.5t-19 14.5l-13 4q-22 7 -28 12l3 79h245v-430q0 -22 4.5 -32t17.5 -15l13 -5
q19 -7 28 -12zM132 691l143 143h109l142 -143l-73 -73l-123 105l-123 -105z" />
    <glyph glyph-name="udieresis" unicode="&#xfc;" horiz-adv-x="699" 
d="M673 79l-3 -79h-224v61q-59 -73 -169 -73q-91 0 -139.5 51.5t-48.5 147.5v243q0 24 -5 33.5t-19 14.5l-13 4q-22 7 -28 12l3 79h245v-374q0 -92 75 -92q36 0 58 29.5t22 82.5v211q0 24 -5 33.5t-19 14.5l-13 4q-22 7 -28 12l3 79h245v-430q0 -22 4.5 -32t17.5 -15l13 -5
q19 -7 28 -12zM156.5 664.5q-25.5 25.5 -25.5 60.5t25.5 60.5t60.5 25.5t60.5 -25.5t25.5 -60.5t-25.5 -60.5t-60.5 -25.5t-60.5 25.5zM382.5 664.5q-25.5 25.5 -25.5 60.5t25.5 60.5t60.5 25.5t60.5 -25.5t25.5 -60.5t-25.5 -60.5t-60.5 -25.5t-60.5 25.5z" />
    <glyph glyph-name="ugrave" unicode="&#xf9;" horiz-adv-x="699" 
d="M673 79l-3 -79h-224v61q-59 -73 -169 -73q-91 0 -139.5 51.5t-48.5 147.5v243q0 24 -5 33.5t-19 14.5l-13 4q-22 7 -28 12l3 79h245v-374q0 -92 75 -92q36 0 58 29.5t22 82.5v211q0 24 -5 33.5t-19 14.5l-13 4q-22 7 -28 12l3 79h245v-430q0 -22 4.5 -32t17.5 -15l13 -5
q19 -7 28 -12zM157 759l100 114l201 -168l-66 -86z" />
    <glyph glyph-name="uhungarumlaut" unicode="&#x171;" horiz-adv-x="699" 
d="M673 79l-3 -79h-224v61q-59 -73 -169 -73q-91 0 -139.5 51.5t-48.5 147.5v243q0 24 -5 33.5t-19 14.5l-13 4q-22 7 -28 12l3 79h245v-374q0 -92 75 -92q36 0 58 29.5t22 82.5v211q0 24 -5 33.5t-19 14.5l-13 4q-22 7 -28 12l3 79h245v-430q0 -22 4.5 -32t17.5 -15l13 -5
q19 -7 28 -12zM104 676l167 194l113 -83l-198 -185zM361 676l167 194l113 -83l-198 -185z" />
    <glyph glyph-name="umacron" unicode="&#x16b;" horiz-adv-x="699" 
d="M673 79l-3 -79h-224v61q-59 -73 -169 -73q-91 0 -139.5 51.5t-48.5 147.5v243q0 24 -5 33.5t-19 14.5l-13 4q-22 7 -28 12l3 79h245v-374q0 -92 75 -92q36 0 58 29.5t22 82.5v211q0 24 -5 33.5t-19 14.5l-13 4q-22 7 -28 12l3 79h245v-430q0 -22 4.5 -32t17.5 -15l13 -5
q19 -7 28 -12zM135 762h390v-117h-390v117z" />
    <glyph glyph-name="uogonek" unicode="&#x173;" horiz-adv-x="699" 
d="M690 -156q-26 -28 -63.5 -44.5t-82.5 -16.5q-63 0 -97.5 28.5t-34.5 78.5q0 32 24.5 63t69.5 48q-44 15 -60 61q-60 -74 -169 -74q-91 0 -139.5 51.5t-48.5 147.5v243q0 24 -5 33.5t-19 14.5l-13 4q-22 7 -28 12l3 79h245v-374q0 -92 75 -92q36 0 58 29.5t22 82.5v211
q0 24 -5 33.5t-19 14.5l-13 4q-22 7 -28 12l3 79h245v-427q0 -27 4 -36.5t21 -14.5l14 -4q14 -4 21 -10l-3 -82h-10q-26 0 -51 -13t-41 -32.5t-16 -38.5q0 -16 7.5 -26t21.5 -10q30 0 63 33z" />
    <glyph glyph-name="uring" unicode="&#x16f;" horiz-adv-x="699" 
d="M673 79l-3 -79h-224v61q-59 -73 -169 -73q-91 0 -139.5 51.5t-48.5 147.5v243q0 24 -5 33.5t-19 14.5l-13 4q-22 7 -28 12l3 79h245v-374q0 -92 75 -92q36 0 58 29.5t22 82.5v211q0 24 -5 33.5t-19 14.5l-13 4q-22 7 -28 12l3 79h245v-430q0 -22 4.5 -32t17.5 -15l13 -5
q19 -7 28 -12zM236.5 644.5q-37.5 27.5 -37.5 79.5q0 50 37.5 79t94.5 29q54 0 92 -28t38 -79t-37 -79.5t-95 -28.5q-55 0 -92.5 27.5zM359 694.5q11 11.5 11 30.5q0 20 -11.5 31t-29.5 11q-17 0 -28 -11.5t-11 -30.5t12 -30.5t29 -11.5t28 11.5z" />
    <glyph glyph-name="utilde" unicode="&#x169;" horiz-adv-x="699" 
d="M673 79l-3 -79h-224v61q-59 -73 -169 -73q-91 0 -139.5 51.5t-48.5 147.5v243q0 24 -5 33.5t-19 14.5l-13 4q-22 7 -28 12l3 79h245v-374q0 -92 75 -92q36 0 58 29.5t22 82.5v211q0 24 -5 33.5t-19 14.5l-13 4q-22 7 -28 12l3 79h245v-430q0 -22 4.5 -32t17.5 -15l13 -5
q19 -7 28 -12zM113 685q16 57 53.5 90.5t87.5 33.5q25 0 46.5 -8.5t46.5 -24.5q20 -12 34 -18t27 -6q21 0 36 16t24 43l79 -57q-14 -54 -49.5 -89.5t-84.5 -35.5q-29 0 -50.5 9t-46.5 25q-18 11 -30 16.5t-25 5.5q-22 0 -39 -15.5t-27 -42.5z" />
    <glyph glyph-name="v" unicode="v" horiz-adv-x="653" 
d="M649 494q-10 -5 -28 -11l-11 -4q-16 -6 -24.5 -14t-12.5 -22l-166 -443h-154l-158 427q-9 24 -18 34.5t-26 15.5l-15 5q-23 8 -31 13l3 78h336l4 -78q-12 -6 -27 -11l-19 -6q-21 -6 -21 -28q0 -11 4 -22l75 -233l88 251q3 8 3 14q0 15 -15 20l-12 4q-16 5 -24 10l3 79
h243z" />
    <glyph glyph-name="w" unicode="w" horiz-adv-x="923" 
d="M93 433q-7 20 -16.5 29.5t-25.5 14.5l-15 5q-20 7 -31 13l3 78h336l4 -78q-6 -4 -26 -11l-15 -5q-14 -5 -20 -11.5t-6 -18.5q0 -8 3 -20l54 -208l94 352h133l100 -352l52 216q2 7 2 19q0 10 -3.5 15.5t-12.5 8.5l-12 4l-27 10l3 79h249l3 -79q-10 -5 -25 -10l-14 -5
q-13 -4 -21 -14t-16 -30l-127 -435h-161l-83 284l-82 -284h-161z" />
    <glyph glyph-name="wacute" unicode="&#x1e83;" horiz-adv-x="923" 
d="M93 433q-7 20 -16.5 29.5t-25.5 14.5l-15 5q-20 7 -31 13l3 78h336l4 -78q-6 -4 -26 -11l-15 -5q-14 -5 -20 -11.5t-6 -18.5q0 -8 3 -20l54 -208l94 352h133l100 -352l52 216q2 7 2 19q0 10 -3.5 15.5t-12.5 8.5l-12 4l-27 10l3 79h249l3 -79q-10 -5 -25 -10l-14 -5
q-13 -4 -21 -14t-16 -30l-127 -435h-161l-83 284l-82 -284h-161zM385 705l201 168l100 -114l-235 -140z" />
    <glyph glyph-name="wcircumflex" unicode="&#x175;" horiz-adv-x="923" 
d="M93 433q-7 20 -16.5 29.5t-25.5 14.5l-15 5q-20 7 -31 13l3 78h336l4 -78q-6 -4 -26 -11l-15 -5q-14 -5 -20 -11.5t-6 -18.5q0 -8 3 -20l54 -208l94 352h133l100 -352l52 216q2 7 2 19q0 10 -3.5 15.5t-12.5 8.5l-12 4l-27 10l3 79h249l3 -79q-10 -5 -25 -10l-14 -5
q-13 -4 -21 -14t-16 -30l-127 -435h-161l-83 284l-82 -284h-161zM303 691l143 143h109l142 -143l-73 -73l-123 105l-123 -105z" />
    <glyph glyph-name="wdieresis" unicode="&#x1e85;" horiz-adv-x="923" 
d="M93 433q-7 20 -16.5 29.5t-25.5 14.5l-15 5q-20 7 -31 13l3 78h336l4 -78q-6 -4 -26 -11l-15 -5q-14 -5 -20 -11.5t-6 -18.5q0 -8 3 -20l54 -208l94 352h133l100 -352l52 216q2 7 2 19q0 10 -3.5 15.5t-12.5 8.5l-12 4l-27 10l3 79h249l3 -79q-10 -5 -25 -10l-14 -5
q-13 -4 -21 -14t-16 -30l-127 -435h-161l-83 284l-82 -284h-161zM327.5 664.5q-25.5 25.5 -25.5 60.5t25.5 60.5t60.5 25.5t60.5 -25.5t25.5 -60.5t-25.5 -60.5t-60.5 -25.5t-60.5 25.5zM553.5 664.5q-25.5 25.5 -25.5 60.5t25.5 60.5t60.5 25.5t60.5 -25.5t25.5 -60.5
t-25.5 -60.5t-60.5 -25.5t-60.5 25.5z" />
    <glyph glyph-name="wgrave" unicode="&#x1e81;" horiz-adv-x="923" 
d="M93 433q-7 20 -16.5 29.5t-25.5 14.5l-15 5q-20 7 -31 13l3 78h336l4 -78q-6 -4 -26 -11l-15 -5q-14 -5 -20 -11.5t-6 -18.5q0 -8 3 -20l54 -208l94 352h133l100 -352l52 216q2 7 2 19q0 10 -3.5 15.5t-12.5 8.5l-12 4l-27 10l3 79h249l3 -79q-10 -5 -25 -10l-14 -5
q-13 -4 -21 -14t-16 -30l-127 -435h-161l-83 284l-82 -284h-161zM328 759l100 114l201 -168l-66 -86z" />
    <glyph glyph-name="x" unicode="x" horiz-adv-x="693" 
d="M683 78l-3 -78h-315l-4 77q10 6 24 10l12 4q10 3 10 9q0 8 -19 30l-58 67l-56 -66q-10 -16 -10 -27q0 -13 11 -16l10 -3q21 -6 27 -9l-5 -76h-293l-3 79q9 3 20 5.5t19 4.5l14 5q23 8 43 22.5t46 44.5l100 120l-120 135q-27 31 -42 43t-32 18l-16 6q-13 4 -28 13l3 77
h321l4 -76q-7 -4 -20 -9l-14 -5q-13 -5 -13 -13q0 -9 9 -18l59 -67l53 61q13 16 13 25t-12 14l-9 3l-17 7l4 78h261l3 -79q-6 -3 -27 -10l-16 -6q-22 -8 -39 -21.5t-45 -46.5l-92 -108l140 -159q22 -25 34.5 -35t25.5 -14l13 -4q15 -4 29 -12z" />
    <glyph glyph-name="y" unicode="y" horiz-adv-x="647" 
d="M643 494q-10 -5 -28 -11l-11 -4q-16 -6 -24.5 -13.5t-16.5 -25.5l-160 -428q-34 -90 -67.5 -141.5t-71 -73t-86.5 -21.5q-75 0 -117.5 40t-42.5 99v4q0 23 10 38t28 15h118l4 -30q6 -46 34 -46q15 0 28.5 18.5t33.5 68.5l-186 461q-6 14 -14.5 21t-22.5 12l-15 5
q-23 8 -31 13l3 78h336l4 -78q-12 -6 -27 -11l-19 -6q-21 -6 -21 -28q0 -10 4 -21l73 -225l80 233q5 14 5 25q0 14 -13 18l-12 4q-21 6 -28 10l3 79h247z" />
    <glyph glyph-name="yacute" unicode="&#xfd;" horiz-adv-x="647" 
d="M643 494q-10 -5 -28 -11l-11 -4q-16 -6 -24.5 -13.5t-16.5 -25.5l-160 -428q-34 -90 -67.5 -141.5t-71 -73t-86.5 -21.5q-75 0 -117.5 40t-42.5 99v4q0 23 10 38t28 15h118l4 -30q6 -46 34 -46q15 0 28.5 18.5t33.5 68.5l-186 461q-6 14 -14.5 21t-22.5 12l-15 5
q-23 8 -31 13l3 78h336l4 -78q-12 -6 -27 -11l-19 -6q-21 -6 -21 -28q0 -10 4 -21l73 -225l80 233q5 14 5 25q0 14 -13 18l-12 4q-21 6 -28 10l3 79h247zM238 705l201 168l100 -114l-235 -140z" />
    <glyph glyph-name="ycircumflex" unicode="&#x177;" horiz-adv-x="647" 
d="M643 494q-10 -5 -28 -11l-11 -4q-16 -6 -24.5 -13.5t-16.5 -25.5l-160 -428q-34 -90 -67.5 -141.5t-71 -73t-86.5 -21.5q-75 0 -117.5 40t-42.5 99v4q0 23 10 38t28 15h118l4 -30q6 -46 34 -46q15 0 28.5 18.5t33.5 68.5l-186 461q-6 14 -14.5 21t-22.5 12l-15 5
q-23 8 -31 13l3 78h336l4 -78q-12 -6 -27 -11l-19 -6q-21 -6 -21 -28q0 -10 4 -21l73 -225l80 233q5 14 5 25q0 14 -13 18l-12 4q-21 6 -28 10l3 79h247zM156 691l143 143h109l142 -143l-73 -73l-123 105l-123 -105z" />
    <glyph glyph-name="ydieresis" unicode="&#xff;" horiz-adv-x="647" 
d="M643 494q-10 -5 -28 -11l-11 -4q-16 -6 -24.5 -13.5t-16.5 -25.5l-160 -428q-34 -90 -67.5 -141.5t-71 -73t-86.5 -21.5q-75 0 -117.5 40t-42.5 99v4q0 23 10 38t28 15h118l4 -30q6 -46 34 -46q15 0 28.5 18.5t33.5 68.5l-186 461q-6 14 -14.5 21t-22.5 12l-15 5
q-23 8 -31 13l3 78h336l4 -78q-12 -6 -27 -11l-19 -6q-21 -6 -21 -28q0 -10 4 -21l73 -225l80 233q5 14 5 25q0 14 -13 18l-12 4q-21 6 -28 10l3 79h247zM180.5 664.5q-25.5 25.5 -25.5 60.5t25.5 60.5t60.5 25.5t60.5 -25.5t25.5 -60.5t-25.5 -60.5t-60.5 -25.5t-60.5 25.5
zM406.5 664.5q-25.5 25.5 -25.5 60.5t25.5 60.5t60.5 25.5t60.5 -25.5t25.5 -60.5t-25.5 -60.5t-60.5 -25.5t-60.5 25.5z" />
    <glyph glyph-name="ygrave" unicode="&#x1ef3;" horiz-adv-x="647" 
d="M643 494q-10 -5 -28 -11l-11 -4q-16 -6 -24.5 -13.5t-16.5 -25.5l-160 -428q-34 -90 -67.5 -141.5t-71 -73t-86.5 -21.5q-75 0 -117.5 40t-42.5 99v4q0 23 10 38t28 15h118l4 -30q6 -46 34 -46q15 0 28.5 18.5t33.5 68.5l-186 461q-6 14 -14.5 21t-22.5 12l-15 5
q-23 8 -31 13l3 78h336l4 -78q-12 -6 -27 -11l-19 -6q-21 -6 -21 -28q0 -10 4 -21l73 -225l80 233q5 14 5 25q0 14 -13 18l-12 4q-21 6 -28 10l3 79h247zM181 759l100 114l201 -168l-66 -86z" />
    <glyph glyph-name="z" unicode="z" horiz-adv-x="581" 
d="M543 225v-225h-510v99l286 362h-135q-12 0 -17.5 -5.5t-9.5 -18.5l-25 -85h-87v221h487v-99l-286 -362h152q11 0 17.5 5t10.5 17l29 91h88z" />
    <glyph glyph-name="zacute" unicode="&#x17a;" horiz-adv-x="581" 
d="M543 225v-225h-510v99l286 362h-135q-12 0 -17.5 -5.5t-9.5 -18.5l-25 -85h-87v221h487v-99l-286 -362h152q11 0 17.5 5t10.5 17l29 91h88zM172 705l201 168l100 -114l-235 -140z" />
    <glyph glyph-name="zcaron" unicode="&#x17e;" horiz-adv-x="581" 
d="M543 225v-225h-510v99l286 362h-135q-12 0 -17.5 -5.5t-9.5 -18.5l-25 -85h-87v221h487v-99l-286 -362h152q11 0 17.5 5t10.5 17l29 91h88zM90 775l75 73l123 -101l123 101l75 -73l-144 -139h-109z" />
    <glyph glyph-name="zdotaccent" unicode="&#x17c;" horiz-adv-x="581" 
d="M543 225v-225h-510v99l286 362h-135q-12 0 -17.5 -5.5t-9.5 -18.5l-25 -85h-87v221h487v-99l-286 -362h152q11 0 17.5 5t10.5 17l29 91h88zM218 663.5q-29 29.5 -29 70.5q0 42 29 70.5t70 28.5q40 0 69.5 -29t29.5 -70t-29.5 -70.5t-69.5 -29.5q-41 0 -70 29.5z" />
    <glyph glyph-name="germandbls.calt" horiz-adv-x="795" 
d="M526.5 -1q-34.5 11 -58.5 30q-4 3 -7 3q-5 0 -7 -8l-3 -24h-98v218h116l3 -37q3 -40 21 -59.5t47 -19.5q26 0 39.5 15.5t13.5 40.5q0 30 -23 51.5t-86 56.5q-59 33 -89.5 64t-30.5 82q0 40 18 64.5t52 50.5q30 23 45 42t15 48q0 30 -21 49t-58 19q-55 0 -82 -39.5
t-27 -103.5v-542h-268l-6 82q8 8 27 14l19 6q19 6 26 16.5t7 40.5v368q0 132 80 202.5t227 70.5q78 0 140.5 -24.5t97.5 -66t35 -89.5q0 -47 -23.5 -74.5t-64.5 -55.5q-22 -15 -33 -25.5t-11 -22.5q0 -16 13.5 -27t62.5 -38q63 -36 104 -84t41 -118q0 -52 -24 -94.5
t-65 -67.5t-90 -25q-40 0 -74.5 11z" />
    <glyph glyph-name="cacute.loclPLK" horiz-adv-x="583" 
d="M166.5 22q-64.5 34 -101.5 102t-37 165q0 91 36 158t97.5 102.5t138.5 35.5q62 0 107 -26q4 -3 8 -3q6 0 7 9l3 17h112v-235h-114l-2 22q-11 110 -90 110q-53 0 -84.5 -44t-31.5 -135q0 -96 37.5 -143.5t97.5 -47.5q36 0 68.5 17.5t67.5 53.5l68 -72q-90 -120 -240 -120
q-83 0 -147.5 34zM219 688l140 202l122 -90l-175 -177z" />
    <glyph glyph-name="nacute.loclPLK" horiz-adv-x="699" 
d="M675 79l-3 -79h-240v349q0 54 -15 80.5t-52 26.5q-43 0 -65 -34.5t-22 -108.5v-170q0 -21 6.5 -31t24.5 -16l15 -5q21 -7 31 -12l-3 -79h-331l-3 79q10 5 31 12l15 5q19 7 25 16t6 31v287q0 24 -6.5 32.5t-25.5 14.5l-15 5q-24 8 -29 12l3 79h248v-55q73 67 165 67
q82 0 131 -51t49 -141v-250q0 -24 4.5 -33.5t17.5 -14.5l11 -4q11 -4 27 -12zM268 688l140 202l122 -90l-175 -177z" />
    <glyph glyph-name="oacute.loclPLK" horiz-adv-x="640" 
d="M166.5 25q-66.5 37 -102.5 104.5t-36 157.5t37.5 157.5t104 104t153.5 36.5t152.5 -36.5t101 -103.5t35.5 -158q0 -90 -37 -157.5t-103.5 -104.5t-151.5 -37q-87 0 -153.5 37zM425 287q0 190 -102 190q-108 0 -108 -190q0 -93 25.5 -142t81.5 -49q103 0 103 191zM234 688
l140 202l122 -90l-175 -177z" />
    <glyph glyph-name="sacute.loclPLK" horiz-adv-x="551" 
d="M166 33q-3 3 -6 3q-4 0 -6 -8l-5 -28h-108v211h116l2 -27q3 -44 31 -68t78 -24q33 0 50.5 12t17.5 35q0 22 -19.5 40.5t-75.5 41.5l-60 25q-72 30 -106.5 71t-34.5 104q0 48 25 85.5t70 58t103 20.5q47 0 79 -10t56 -29q9 -7 10 3l3 27h109v-185h-116l-3 18
q-6 37 -30.5 56.5t-62.5 19.5q-32 0 -48.5 -12t-16.5 -33q0 -16 8.5 -27t28.5 -21t62 -28l59 -27q73 -36 106 -75.5t33 -99.5q0 -51 -25 -90.5t-69.5 -61.5t-100.5 -22q-99 0 -154 45zM178 688l140 202l122 -90l-175 -177z" />
    <glyph glyph-name="zacute.loclPLK" horiz-adv-x="581" 
d="M543 225v-225h-510v99l286 362h-135q-12 0 -17.5 -5.5t-9.5 -18.5l-25 -85h-87v221h487v-99l-286 -362h152q11 0 17.5 5t10.5 17l29 91h88zM200 688l140 202l122 -90l-175 -177z" />
    <glyph glyph-name="ordfeminine" unicode="&#xaa;" horiz-adv-x="462" 
d="M423 484v-53h-151v45q-31 -53 -118 -53q-47 0 -83 28.5t-36 76.5q0 46 34 73t100 40l56 11q22 4 28.5 8.5t6.5 15.5v11q0 48 -41 48q-18 0 -28.5 -10.5t-10.5 -31.5v-25h-107q-10 0 -14 9q-4 10 -4 22q0 43 45.5 72t126.5 29q158 0 158 -123v-151q0 -17 3 -23.5t13 -9.5
l9 -3q8 -3 13 -6zM260 599q-12 -5 -37 -12l-12 -3q-42 -10 -42 -45q0 -20 12 -30.5t29 -10.5q23 0 36.5 15.5t13.5 41.5v44zM47 376h371v-83h-371v83z" />
    <glyph glyph-name="ordmasculine" unicode="&#xba;" horiz-adv-x="439" 
d="M119 446q-44 23 -69 66t-25 100q0 56 25.5 99t70 66t100.5 23q87 0 140 -51t53 -137q0 -57 -25 -100t-69.5 -66t-100.5 -23t-100 23zM267 525.5q14 26.5 14 86.5q0 57 -14.5 84.5t-44.5 27.5q-32 0 -47.5 -27t-15.5 -85q0 -60 15 -86.5t48 -26.5q31 0 45 26.5zM34 376
h371v-83h-371v83z" />
    <glyph glyph-name="uni0394" unicode="&#x394;" horiz-adv-x="772" 
d="M752 0h-732l282 788h178zM206 121h312l-154 471z" />
    <glyph glyph-name="uni03A9" unicode="&#x3a9;" horiz-adv-x="786" 
d="M760 121v-121h-327v104q60 53 90 133.5t30 184.5q0 263 -158 263q-74 0 -118 -65.5t-44 -197.5q0 -112 28 -189t93 -129v-104h-328v121h149q-146 113 -146 306q0 110 47.5 194.5t131.5 131.5t189 47q106 0 187.5 -46.5t127 -131.5t45.5 -195q0 -93 -40.5 -170.5
t-113.5 -135.5h157z" />
    <glyph glyph-name="uni03BC" unicode="&#x3bc;" horiz-adv-x="715" 
d="M707 64q-23 -35 -60 -55.5t-83 -20.5q-41 0 -71.5 15.5t-46.5 45.5q-43 -61 -111 -61q-39 0 -69 21v-221h-177v642q0 24 -5 33.5t-19 14.5l-13 4q-22 7 -28 12l3 79h245v-378q0 -40 19.5 -63.5t53.5 -23.5q39 0 60.5 30t21.5 85v207q0 24 -5 33.5t-19 14.5l-13 4
q-22 7 -28 12l3 79h245v-443q0 -27 20 -27q7 0 16.5 5t15.5 12z" />
    <glyph glyph-name="pi" unicode="&#x3c0;" horiz-adv-x="730" 
d="M438.5 21.5q-31.5 33.5 -31.5 99.5v331h-129v-452h-183v452h-80v121h657v-121h-82v-314q0 -32 25 -32q19 0 35 16l46 -53q-26 -37 -67 -59t-91 -22q-68 0 -99.5 33.5z" />
    <glyph glyph-name="zero" unicode="0" horiz-adv-x="703" 
d="M187 35.5q-71 47.5 -110 140t-39 222.5q0 132 39 222t110 135t166 45q93 0 163.5 -46t109.5 -138.5t39 -227.5q0 -126 -39.5 -216t-110 -137t-162.5 -47q-95 0 -166 47.5zM418.5 122.5q22.5 29.5 32 94.5t9.5 178q0 112 -9 176t-32.5 94t-66.5 30q-44 0 -67.5 -30
t-32.5 -94.5t-9 -177.5q0 -109 11 -174.5t35.5 -95.5t64.5 -30q42 0 64.5 29.5z" />
    <glyph glyph-name="one" unicode="1" horiz-adv-x="539" 
d="M76 82q19 7 50 15l22 6q27 7 38.5 23.5t11.5 52.5v426l-122 -36l-36 90l190 129h163v-609q0 -36 9.5 -51.5t33.5 -22.5l24 -7q9 -3 24 -7t31 -10l-7 -81h-423z" />
    <glyph glyph-name="two" unicode="2" horiz-adv-x="607" 
d="M569 237v-237h-517v100l108 122q102 116 150.5 207.5t48.5 170.5q0 95 -56 95q-58 0 -58 -96v-63h-156q-20 0 -31 11t-11 37v14q0 61 33.5 106.5t93.5 70.5t138 25q71 0 128.5 -24t90.5 -70.5t33 -111.5q0 -90 -59 -184.5t-189 -214.5l-59 -55h158q13 0 21 4.5t13 16.5
l11 30q10 26 19 46h90z" />
    <glyph glyph-name="three" unicode="3" horiz-adv-x="617" 
d="M167.5 11q-61.5 23 -95.5 66.5t-34 103.5v9q0 31 9 43.5t32 12.5h156v-56q0 -47 20.5 -72t56.5 -25q72 0 72 114q0 65 -28 95t-95 34l-51 3v115l46 3q37 3 58 16t30 41t9 78q0 55 -12 79t-40 24t-41 -24.5t-13 -74.5v-57h-156q-22 0 -31.5 11.5t-9.5 37.5v8
q0 59 32.5 105.5t91 72.5t134.5 26t132.5 -24.5t87 -69.5t30.5 -106q0 -66 -36 -113t-94 -62v-4q74 -18 117.5 -69.5t43.5 -129.5q0 -69 -36.5 -122.5t-100.5 -82.5t-144 -29q-79 0 -140.5 23z" />
    <glyph glyph-name="four" unicode="4" horiz-adv-x="661" 
d="M534 184v-36q0 -23 6.5 -32.5t24.5 -14.5l16 -5q24 -7 36 -12l-3 -85h-355l-3 85l33 12l15 5q20 7 27.5 16.5t7.5 30.5v36h-307v91l344 513h158v-479h83v-125h-83zM339 309v231l-149 -231h149z" />
    <glyph glyph-name="five" unicode="5" horiz-adv-x="621" 
d="M464.5 474.5q53.5 -30.5 84 -88t30.5 -133.5q0 -83 -35 -142.5t-98 -91t-146 -31.5q-118 0 -190 51.5t-72 141.5v13q0 25 9 37t29 12h160v-49q0 -101 70 -101q35 0 51.5 33t16.5 110q0 152 -112 152q-64 0 -121 -29l-62 53l60 376h380v-148h-263l-23 -155q49 20 111 20
q67 0 120.5 -30.5z" />
    <glyph glyph-name="six" unicode="6" horiz-adv-x="634" 
d="M489.5 493.5q52.5 -31.5 81.5 -89.5t29 -136q0 -83 -35 -146.5t-97.5 -98.5t-142.5 -35q-135 0 -211 93t-76 275q0 141 39.5 241t112 151.5t171.5 51.5q98 0 153 -45t55 -121v-8q0 -17 -8 -24t-26 -7h-141l-2 31q-2 36 -14 52.5t-36 16.5q-41 0 -69 -53t-34 -162
q25 21 58.5 33t70.5 12q69 0 121.5 -31.5zM378 133.5q18 40.5 18 125.5t-17 121.5t-56 36.5q-38 0 -58.5 -39.5t-20.5 -119.5q0 -84 19.5 -124.5t59.5 -40.5q37 0 55 40.5z" />
    <glyph glyph-name="seven" unicode="7" horiz-adv-x="591" 
d="M581 788v-88q-106 -143 -162.5 -300t-56.5 -317v-83h-201v76q0 127 54 269t161 293h-185q-17 0 -23 -3t-10 -16l-11 -32q-15 -46 -24 -58h-87v259h545z" />
    <glyph glyph-name="eight" unicode="8" horiz-adv-x="628" 
d="M553.5 350.5q42.5 -51.5 42.5 -129.5q0 -67 -38 -120t-103 -83t-144 -30q-82 0 -144 27.5t-95.5 76.5t-33.5 112q0 62 36 112.5t101 83.5q-53 42 -83.5 88.5t-30.5 106.5q0 61 33.5 107.5t93 72t136.5 25.5q71 0 125.5 -22t85 -62t30.5 -93q0 -50 -33 -96t-96 -79
q75 -46 117.5 -97.5zM267 685q-20 -20 -20 -56q0 -38 24 -67t69 -58q54 46 54 115q0 39 -18 62.5t-54 23.5q-35 0 -55 -20zM390 109.5q23 26.5 23 71.5q0 29 -19 54t-47 46.5t-78 53.5q-48 -56 -48 -134q0 -55 28 -86.5t76 -31.5q42 0 65 26.5z" />
    <glyph glyph-name="nine" unicode="9" horiz-adv-x="639" 
d="M525 707q76 -93 76 -275q0 -141 -37.5 -241t-107.5 -151.5t-166 -51.5q-105 0 -162.5 45t-57.5 121v8q0 17 8 24t26 7h141l2 -30q4 -70 58 -70q38 0 64 53t32 162q-53 -45 -130 -45q-69 0 -123 31.5t-84 90t-30 135.5q0 83 36 146.5t99.5 98.5t144.5 35q135 0 211 -93z
M375 410.5q20 39.5 20 119.5q0 84 -18.5 124.5t-56.5 40.5q-40 0 -61 -41.5t-21 -124.5q0 -84 19 -121t60 -37q38 0 58 39.5z" />
    <glyph glyph-name="uni00B9" unicode="&#xb9;" horiz-adv-x="350" 
d="M114 653q0 20 -5 29t-18 12l-20 4q-18 4 -27 8v82h223v-399h-153v264z" />
    <glyph glyph-name="uni00B2" unicode="&#xb2;" horiz-adv-x="466" 
d="M426 539v-150h-386v91q78 48 121.5 79t66 59.5t22.5 59.5q0 44 -32 44q-35 0 -35 -46v-59h-110q-41 0 -41 48q0 62 51 98.5t147 36.5q87 0 135 -35t48 -90q0 -103 -203 -194h95q15 0 23.5 6t15.5 20l5 11l12 21h65z" />
    <glyph glyph-name="uni00B3" unicode="&#xb3;" horiz-adv-x="468" 
d="M85.5 420q-51.5 32 -51.5 86q0 18 7 25.5t22 7.5h114v-22q0 -25 12.5 -38t35.5 -13q21 0 32 13.5t11 35.5q0 23 -12 34.5t-40 11.5h-23v74h21q49 0 49 43q0 20 -8.5 32t-25.5 12q-18 0 -27.5 -11.5t-9.5 -30.5v-21h-114q-16 0 -22.5 5t-6.5 23q0 50 50.5 81.5t137.5 31.5
q79 0 128.5 -31t49.5 -81q0 -30 -18.5 -52t-53.5 -33v-1q39 -8 63.5 -32.5t24.5 -61.5q0 -53 -56 -86.5t-146 -33.5q-92 0 -143.5 32z" />
    <glyph glyph-name="fraction" unicode="&#x2044;" horiz-adv-x="486" 
d="M-65 48l509 783l107 -75l-509 -787z" />
    <glyph glyph-name="onehalf" unicode="&#xbd;" horiz-adv-x="931" 
d="M719 756l-509 -787l-107 79l509 783zM119 682q-5 9 -18 12l-20 4q-18 4 -27 8v82h223v-399h-153v264q0 20 -5 29zM887 150v-150h-386v91q78 48 121.5 79t66 59.5t22.5 59.5q0 44 -32 44q-35 0 -35 -46v-59h-110q-41 0 -41 48q0 62 51 98.5t147 36.5q87 0 135 -35t48 -90
q0 -103 -203 -194h95q15 0 23.5 6t15.5 20l5 11l12 21h65z" />
    <glyph glyph-name="onequarter" unicode="&#xbc;" horiz-adv-x="913" 
d="M719 756l-509 -787l-107 79l509 783zM119 682q-5 9 -18 12l-20 4q-18 4 -27 8v82h223v-399h-153v264q0 20 -5 29zM853 158v-81h-47v-77h-156v77h-216v70l170 251h202v-240h47zM650 158v151l-97 -151h97z" />
    <glyph glyph-name="threequarters" unicode="&#xbe;" horiz-adv-x="1027" 
d="M833 756l-509 -787l-107 79l509 783zM375 421.5q-56 -33.5 -146 -33.5q-92 0 -143.5 32t-51.5 86q0 18 7 25.5t22 7.5h114v-22q0 -25 12.5 -38t35.5 -13q21 0 32 13.5t11 35.5q0 23 -12 34.5t-40 11.5h-23v74h21q49 0 49 43q0 20 -8.5 32t-25.5 12q-18 0 -27.5 -11.5
t-9.5 -30.5v-21h-114q-16 0 -22.5 5t-6.5 23q0 50 50.5 81.5t137.5 31.5q79 0 128.5 -31t49.5 -81q0 -30 -18.5 -52t-53.5 -33v-1q39 -8 63.5 -32.5t24.5 -61.5q0 -53 -56 -86.5zM967 158v-81h-47v-77h-156v77h-216v70l170 251h202v-240h47zM764 158v151l-97 -151h97z" />
    <glyph glyph-name="asterisk" unicode="*" horiz-adv-x="600" 
d="M137.5 369q-5.5 5 -5.5 14l2 10l52 158l-135 98q-11 8 -11 19q0 7 6 12.5t15 5.5h169l51 159q5 15 19 15t19 -15l53 -159h167q9 0 15 -5.5t6 -12.5q0 -11 -11 -19l-134 -98l51 -158l2 -10q0 -9 -5.5 -14t-13.5 -5q-9 0 -17 7l-132 97l-132 -97q-8 -7 -17 -7q-8 0 -13.5 5
z" />
    <glyph glyph-name="backslash" unicode="\" horiz-adv-x="559" 
d="M-3 820l134 59l431 -961l-134 -59z" />
    <glyph glyph-name="periodcentered" unicode="&#xb7;" horiz-adv-x="490" 
d="M170 235q-31 31 -31 76q0 44 31 74.5t76 30.5q44 0 74.5 -30.5t30.5 -74.5q0 -45 -30.5 -76t-74.5 -31q-45 0 -76 31z" />
    <glyph glyph-name="bullet" unicode="&#x2022;" horiz-adv-x="622" 
d="M195.5 110q-53.5 31 -84.5 84.5t-31 115.5t31 115.5t84.5 84.5t115.5 31t115.5 -31t84.5 -84.5t31 -115.5t-31 -115.5t-84.5 -84.5t-115.5 -31t-115.5 31z" />
    <glyph glyph-name="colon" unicode=":" horiz-adv-x="278" 
d="M69.5 404.5q-29.5 28.5 -29.5 69.5q0 40 28 68t69 28q40 0 68 -28t28 -68q0 -42 -25 -70t-66 -28q-43 0 -72.5 28.5zM69.5 18.5q-29.5 28.5 -29.5 69.5q0 40 28 68t69 28q40 0 68 -28t28 -68q0 -42 -25 -70t-66 -28q-43 0 -72.5 28.5z" />
    <glyph glyph-name="comma" unicode="," horiz-adv-x="274" 
d="M26 -102q35 29 52 52.5t17 46.5q0 10 -5 17t-16 18q-17 16 -26.5 32t-9.5 43q0 36 26.5 60t66.5 24q44 0 74.5 -29.5t30.5 -83.5q0 -63 -34 -125t-95 -117z" />
    <glyph glyph-name="ellipsis" unicode="&#x2026;" horiz-adv-x="861" 
d="M69.5 19q-29.5 29 -29.5 72q0 42 29.5 71t72.5 29q42 0 71 -29t29 -71q0 -43 -29 -72t-71 -29q-43 0 -72.5 29zM356.5 19q-29.5 29 -29.5 72q0 42 29.5 71t72.5 29q42 0 71 -29t29 -71q0 -43 -29 -72t-71 -29q-43 0 -72.5 29zM643.5 19q-29.5 29 -29.5 72q0 42 29.5 71
t72.5 29q42 0 71 -29t29 -71q0 -43 -29 -72t-71 -29q-43 0 -72.5 29z" />
    <glyph glyph-name="exclam" unicode="!" horiz-adv-x="314" 
d="M50 788h214l-40 -556h-134zM87 17q-28 27 -28 68q0 42 28 69t70 27t70 -27t28 -69q0 -41 -28 -68t-70 -27t-70 27z" />
    <glyph glyph-name="exclamdown" unicode="&#xa1;" horiz-adv-x="328" 
d="M94 444q-28 27 -28 69q0 41 28 68t70 27t70 -27t28 -68q0 -42 -28 -69t-70 -27t-70 27zM97 366h134l40 -556h-214z" />
    <glyph glyph-name="numbersign" unicode="#" horiz-adv-x="653" 
d="M105 221h-79v104h95l20 139h-83v104h100l32 220h137l-33 -220h107l34 220h136l-33 -220h89v-104h-104l-20 -139h85v-104h-102l-33 -221h-137l35 221h-108l-35 -221h-136zM366 325l20 139h-107l-20 -139h107z" />
    <glyph glyph-name="period" unicode="." horiz-adv-x="287" 
d="M69.5 19q-29.5 29 -29.5 72q0 42 29.5 71t72.5 29q42 0 71 -29t29 -71q0 -43 -29 -72t-71 -29q-43 0 -72.5 29z" />
    <glyph glyph-name="question" unicode="?" horiz-adv-x="568" 
d="M181.5 271q-2.5 17 -2.5 42q0 51 19.5 83.5t57.5 71.5q37 38 55.5 68t18.5 77q0 35 -13.5 53t-37.5 18q-26 0 -40.5 -20t-14.5 -59v-66h-162q-20 0 -29 12.5t-9 37.5v5q0 57 31 104t90 74.5t138 27.5q71 0 128 -24t90 -69t33 -106q0 -42 -14 -73.5t-34 -54t-54 -53.5
q-47 -42 -72.5 -76.5t-29.5 -86.5l-2 -27h-138q-6 24 -8.5 41zM189 17q-28 27 -28 68q0 42 28 69t70 27t70 -27t28 -69q0 -41 -28 -68t-70 -27t-70 27z" />
    <glyph glyph-name="questiondown" unicode="&#xbf;" horiz-adv-x="568" 
d="M234 444q-28 27 -28 69q0 41 28 68t70 27t70 -27t28 -68q0 -42 -28 -69t-70 -27t-70 27zM152 -178q-57 24 -90 69t-33 106q0 42 14 73.5t34 54t54 53.5q47 42 72.5 76.5t29.5 86.5l2 27h138q6 -24 8.5 -41t2.5 -42q0 -51 -19.5 -83.5t-57.5 -71.5q-37 -38 -55.5 -68
t-18.5 -77q0 -35 13.5 -53t37.5 -18q26 0 40.5 20t14.5 59v66h162q20 0 29 -12.5t9 -37.5v-5q0 -57 -31 -104t-90 -74.5t-138 -27.5q-71 0 -128 24z" />
    <glyph glyph-name="quotedbl" unicode="&#x22;" horiz-adv-x="480" 
d="M40 788h171l-29 -290h-112zM269 788h171l-29 -290h-112z" />
    <glyph glyph-name="quotesingle" unicode="'" horiz-adv-x="251" 
d="M40 788h171l-29 -290h-112z" />
    <glyph glyph-name="semicolon" unicode=";" horiz-adv-x="281" 
d="M62.5 404.5q-29.5 28.5 -29.5 69.5q0 40 28 68t69 28q40 0 68 -28t28 -68q0 -42 -25 -70t-66 -28q-43 0 -72.5 28.5zM26 -102q35 29 52 52.5t17 46.5q0 10 -5 17t-16 18q-17 16 -26.5 32t-9.5 43q0 36 26.5 60t66.5 24q44 0 74.5 -29.5t30.5 -83.5q0 -63 -34 -125
t-95 -117z" />
    <glyph glyph-name="slash" unicode="/" horiz-adv-x="559" 
d="M-3 -82l431 961l134 -59l-431 -961z" />
    <glyph glyph-name="underscore" unicode="_" horiz-adv-x="600" 
d="M0 -82h600v-121h-600v121z" />
    <glyph glyph-name="braceleft" unicode="{" horiz-adv-x="371" 
d="M150 -172q-44 38 -44 131v256q0 24 -9.5 36.5t-33.5 12.5h-30v122h28q24 0 34.5 14t10.5 42v222q0 93 44 131t128 38h63v-100h-28q-39 0 -54.5 -17t-15.5 -62v-243q0 -36 -13 -56.5t-42 -27.5l-8 -2l8 -2q29 -8 42 -25.5t13 -51.5v-277q0 -36 6.5 -53t20.5 -21.5t43 -4.5
h28v-100h-63q-84 0 -128 38z" />
    <glyph glyph-name="braceright" unicode="}" horiz-adv-x="371" 
d="M221 -172q44 38 44 131v256q0 24 9.5 36.5t33.5 12.5h30v122h-28q-24 0 -34.5 14t-10.5 42v222q0 93 -44 131t-128 38h-63v-100h28q39 0 54.5 -17t15.5 -62v-243q0 -36 13 -56.5t42 -27.5l8 -2l-8 -2q-29 -8 -42 -25.5t-13 -51.5v-277q0 -36 -6.5 -53t-20.5 -21.5
t-43 -4.5h-28v-100h63q84 0 128 38z" />
    <glyph glyph-name="bracketleft" unicode="[" horiz-adv-x="389" 
d="M95 833h239v-100h-102v-845h102v-100h-239v1045z" />
    <glyph glyph-name="bracketright" unicode="]" horiz-adv-x="389" 
d="M294 833h-239v-100h102v-845h-102v-100h239v1045z" />
    <glyph glyph-name="parenleft" unicode="(" horiz-adv-x="352" 
d="M99 30.5q-41 140.5 -41 279.5q0 150 39.5 289.5t106.5 246.5l100 -30q-47 -131 -67.5 -250t-20.5 -247q0 -135 21 -259t66 -253l-100 -30q-63 113 -104 253.5z" />
    <glyph glyph-name="parenright" unicode=")" horiz-adv-x="352" 
d="M253 30.5q41 140.5 41 279.5q0 150 -39.5 289.5t-106.5 246.5l-100 -30q47 -131 67.5 -250t20.5 -247q0 -135 -21 -259t-66 -253l100 -30q63 113 104 253.5z" />
    <glyph glyph-name="emdash" unicode="&#x2014;" horiz-adv-x="980" 
d="M40 363h900v-126h-900v126z" />
    <glyph glyph-name="endash" unicode="&#x2013;" horiz-adv-x="680" 
d="M40 363h600v-126h-600v126z" />
    <glyph glyph-name="hyphen" unicode="-" horiz-adv-x="354" 
d="M40 363h274v-126h-274v126z" />
    <glyph glyph-name="uni00AD" unicode="&#xad;" horiz-adv-x="354" 
d="M40 363h274v-126h-274v126z" />
    <glyph glyph-name="guillemotleft" unicode="&#xab;" horiz-adv-x="539" 
d="M54 295q-4 7 -4 14q0 8 4 15l120 205l88 -31l-85 -184l85 -191l-90 -33zM256 295q-4 7 -4 14q0 8 4 15l120 205l88 -31l-85 -184l85 -191l-90 -33z" />
    <glyph glyph-name="guillemotright" unicode="&#xbb;" horiz-adv-x="539" 
d="M75 123l85 191l-85 184l88 31l120 -205q4 -7 4 -15q0 -7 -4 -14l-118 -205zM277 123l85 191l-85 184l88 31l120 -205q4 -7 4 -15q0 -7 -4 -14l-118 -205z" />
    <glyph glyph-name="guilsinglleft" unicode="&#x2039;" horiz-adv-x="337" 
d="M54 295q-4 7 -4 14q0 8 4 15l120 205l88 -31l-85 -184l85 -191l-90 -33z" />
    <glyph glyph-name="guilsinglright" unicode="&#x203a;" horiz-adv-x="337" 
d="M75 123l85 191l-85 184l88 31l120 -205q4 -7 4 -15q0 -7 -4 -14l-118 -205z" />
    <glyph glyph-name="quotedblbase" unicode="&#x201e;" horiz-adv-x="479" 
d="M34 -100q62 62 62 95q0 9 -5 16.5t-16 19.5q-16 16 -25 32t-9 41q0 30 22.5 51t55.5 21q42 0 68 -27.5t26 -79.5q0 -59 -31 -115t-83 -103zM264 -100q62 62 62 95q0 9 -5 16.5t-16 19.5q-16 16 -25 32t-9 41q0 30 22.5 51t55.5 21q42 0 68 -27.5t26 -79.5q0 -59 -31 -115
t-83 -103z" />
    <glyph glyph-name="quotedblleft" unicode="&#x201c;" horiz-adv-x="479" 
d="M62 502.5q-26 27.5 -26 79.5q0 59 31 115t83 103l65 -49q-62 -62 -62 -95q0 -9 5 -16.5t16 -19.5q16 -16 25 -32t9 -41q0 -30 -22.5 -51t-55.5 -21q-42 0 -68 27.5zM292 502.5q-26 27.5 -26 79.5q0 59 31 115t83 103l65 -49q-62 -62 -62 -95q0 -9 5 -16.5t16 -19.5
q16 -16 25 -32t9 -41q0 -30 -22.5 -51t-55.5 -21q-42 0 -68 27.5z" />
    <glyph glyph-name="quotedblright" unicode="&#x201d;" horiz-adv-x="479" 
d="M34 524q62 62 62 95q0 9 -5 16.5t-16 19.5q-16 16 -25 32t-9 41q0 30 22.5 51t55.5 21q42 0 68 -27.5t26 -79.5q0 -59 -31 -115t-83 -103zM264 524q62 62 62 95q0 9 -5 16.5t-16 19.5q-16 16 -25 32t-9 41q0 30 22.5 51t55.5 21q42 0 68 -27.5t26 -79.5q0 -59 -31 -115
t-83 -103z" />
    <glyph glyph-name="quoteleft" unicode="&#x2018;" horiz-adv-x="249" 
d="M62 502.5q-26 27.5 -26 79.5q0 59 31 115t83 103l65 -49q-62 -62 -62 -95q0 -9 5 -16.5t16 -19.5q16 -16 25 -32t9 -41q0 -30 -22.5 -51t-55.5 -21q-42 0 -68 27.5z" />
    <glyph glyph-name="quoteright" unicode="&#x2019;" horiz-adv-x="249" 
d="M34 524q62 62 62 95q0 9 -5 16.5t-16 19.5q-16 16 -25 32t-9 41q0 30 22.5 51t55.5 21q42 0 68 -27.5t26 -79.5q0 -59 -31 -115t-83 -103z" />
    <glyph glyph-name="quotesinglbase" unicode="&#x201a;" horiz-adv-x="249" 
d="M34 -100q62 62 62 95q0 9 -5 16.5t-16 19.5q-16 16 -25 32t-9 41q0 30 22.5 51t55.5 21q42 0 68 -27.5t26 -79.5q0 -59 -31 -115t-83 -103z" />
    <glyph glyph-name="uni2003" unicode="&#x2003;" horiz-adv-x="980" 
 />
    <glyph glyph-name="uni2002" unicode="&#x2002;" horiz-adv-x="680" 
 />
    <glyph glyph-name="uni200A" unicode="&#x200a;" horiz-adv-x="61" 
 />
    <glyph glyph-name="uni00A0" unicode="&#xa0;" horiz-adv-x="240" 
 />
    <glyph glyph-name="uni2009" unicode="&#x2009;" horiz-adv-x="196" 
 />
    <glyph glyph-name="cent" unicode="&#xa2;" horiz-adv-x="557" 
d="M349 102v-99h-134v107q-91 25 -144 98.5t-53 191.5q0 112 54 187.5t142 98.5v99h134v-96q25 -5 49 -19q4 -3 8 -3q6 0 7 9l3 17h112v-235h-114l-2 22q-11 110 -90 110q-53 0 -84.5 -44t-31.5 -135q0 -96 37.5 -143.5t97.5 -47.5q36 0 68.5 17.5t67.5 53.5l68 -72
q-77 -102 -195 -117z" />
    <glyph glyph-name="currency" unicode="&#xa4;" horiz-adv-x="719" 
d="M33 95l103 98q-30 54 -30 123q0 65 32 127l-105 99l90 94l102 -98q59 38 128 38q76 0 139 -46l106 104l91 -93l-114 -109q26 -54 26 -116q0 -63 -25 -113l113 -107l-91 -93l-103 102q-62 -48 -142 -48q-68 0 -130 40l-100 -96zM424.5 217q25.5 33 25.5 95q0 64 -26 101
t-70 37q-43 0 -70 -33.5t-27 -93.5q0 -64 25.5 -101.5t72.5 -37.5q44 0 69.5 33z" />
    <glyph glyph-name="dollar" unicode="$" horiz-adv-x="607" 
d="M582.5 106q-30.5 -51 -81.5 -81.5t-111 -35.5v-104h-138v119q-38 12 -67 31q-5 3 -8 3q-4 0 -6 -9l-2 -29h-126v275h134l2 -32q4 -68 44.5 -104t101.5 -36q45 0 68 22.5t23 59.5q0 34 -23 59.5t-76 57.5l-110 67q-80 49 -117 100.5t-37 124.5q0 78 51.5 132t134.5 69v114
h138v-118q26 -6 50 -22q4 -3 8 -3q5 0 7 8l4 24h126v-246h-134l-4 41q-9 92 -99 92q-39 0 -61.5 -16.5t-22.5 -45.5q0 -27 22.5 -49t86.5 -61l108 -66q78 -47 111.5 -99.5t33.5 -126.5q0 -64 -30.5 -115z" />
    <glyph glyph-name="Euro" unicode="&#x20ac;" horiz-adv-x="779" 
d="M761 217q-30 -106 -104 -167.5t-186 -61.5q-127 0 -207 62.5t-110 182.5h-114v109h98q-2 32 -2 50v25h-96v109h110q30 131 114.5 202.5t203.5 71.5q78 0 128 -30q6 -3 9 -3q5 0 6 6l4 21h123v-258h-128l-6 35q-19 114 -112 114q-51 0 -87.5 -40t-52.5 -119h168v-109h-179
v-19q0 -20 2 -56h177v-109h-161q35 -127 136 -127q48 0 88.5 40.5t64.5 113.5z" />
    <glyph glyph-name="florin" unicode="&#x192;" horiz-adv-x="636" 
d="M-73 -187.5q-47 36.5 -47 105.5v5q0 20 7 27t26 7h121v-44q0 -23 6.5 -33t20.5 -10q12 0 19 7.5t12 26.5t12 60l59 364h-99v120h120l23 145q17 105 73.5 156t161.5 51q87 0 132 -39t45 -110v-5q0 -12 -1 -17t-5 -9q-8 -8 -30 -8h-118v41q0 29 -5.5 41t-19.5 12
q-16 0 -25 -14t-16 -52l-33 -192h120v-120h-140l-54 -335q-19 -116 -78 -166.5t-161 -50.5q-79 0 -126 36.5z" />
    <glyph glyph-name="sterling" unicode="&#xa3;" horiz-adv-x="646" 
d="M616 243v-243h-574v102q66 23 103 61.5t37 87.5q0 34 -16 71h-118v104h63q-49 90 -49 161q0 63 34 111.5t96 75t144 26.5q73 0 131 -24.5t91 -69t33 -102.5v-8q0 -26 -9.5 -37.5t-31.5 -11.5h-155v51q0 43 -14.5 65t-45.5 22q-68 0 -68 -90q0 -78 51 -169h151v-104h-108
q5 -28 5 -50q0 -38 -16.5 -74t-47.5 -67h151q18 0 27 7t15 25l10 27q12 33 24 53h87z" />
    <glyph glyph-name="yen" unicode="&#xa5;" horiz-adv-x="716" 
d="M718 705q-7 -6 -29 -13l-16 -5q-43 -13 -70 -70l-89 -189h112v-108h-161v-52h161v-108h-161q1 -30 6.5 -40.5t25.5 -17.5l15 -5q20 -7 31 -16l-5 -81h-341l-6 82q9 9 27 14l19 6q20 7 26 17.5t7 40.5h-160v108h160v52h-160v108h105l-93 180q-21 41 -35 56t-31 21l-15 5
q-24 9 -33 16l7 82h330l8 -83q-7 -7 -27 -13l-13 -4q-17 -6 -17 -18q0 -13 17 -45l82 -162l77 162q16 35 16 48q0 12 -12 15l-15 4q-23 7 -33 15l4 81h279z" />
    <glyph glyph-name="dotmath" unicode="&#x22c5;" horiz-adv-x="512" 
d="M181 235q-31 31 -31 76q0 44 31 74.5t76 30.5q44 0 74.5 -30.5t30.5 -74.5q0 -45 -30.5 -76t-74.5 -31q-45 0 -76 31z" />
    <glyph glyph-name="plus" unicode="+" horiz-adv-x="625" 
d="M245 257h-214v127h214v206h135v-206h214v-127h-214v-206h-135v206z" />
    <glyph glyph-name="minus" unicode="&#x2212;" horiz-adv-x="625" 
d="M31 384h563v-127h-563v127z" />
    <glyph glyph-name="multiply" unicode="&#xd7;" horiz-adv-x="625" 
d="M311 238l-176 -178l-91 88l177 177l-170 175l91 88l170 -173l169 174l91 -87l-172 -174l182 -182l-90 -89z" />
    <glyph glyph-name="divide" unicode="&#xf7;" horiz-adv-x="625" 
d="M248.5 465.5q-26.5 26.5 -26.5 64.5q0 37 26.5 63t64.5 26q37 0 63.5 -26t26.5 -63q0 -38 -26.5 -64.5t-63.5 -26.5q-38 0 -64.5 26.5zM31 384h563v-127h-563v127zM248.5 48.5q-26.5 26.5 -26.5 64.5q0 37 26.5 63t64.5 26q37 0 63.5 -26t26.5 -63q0 -38 -26.5 -64.5
t-63.5 -26.5q-38 0 -64.5 26.5z" />
    <glyph glyph-name="equal" unicode="=" horiz-adv-x="625" 
d="M31 511h563v-127h-563v127zM31 257h563v-127h-563v127z" />
    <glyph glyph-name="notequal" unicode="&#x2260;" horiz-adv-x="625" 
d="M420 384l-79 -127h253v-127h-332l-92 -147l-97 61l54 86h-96v127h175l79 127h-254v127h334l92 148l97 -61l-54 -87h94v-127h-174z" />
    <glyph glyph-name="greater" unicode="&#x3e;" horiz-adv-x="625" 
d="M581 384v-128l-498 -202l-44 113l398 154l-395 156l44 113z" />
    <glyph glyph-name="less" unicode="&#x3c;" horiz-adv-x="625" 
d="M586 167l-44 -113l-498 202v128l495 206l44 -113l-395 -156z" />
    <glyph glyph-name="greaterequal" unicode="&#x2265;" horiz-adv-x="625" 
d="M39 283l398 154l-395 156l44 113l495 -206v-128l-498 -202zM594 127v-127h-563v127h563z" />
    <glyph glyph-name="lessequal" unicode="&#x2264;" horiz-adv-x="625" 
d="M542 171l-498 202v128l495 206l44 -113l-395 -156l398 -154zM594 127v-127h-563v127h563z" />
    <glyph glyph-name="plusminus" unicode="&#xb1;" horiz-adv-x="625" 
d="M240 379h-214v127h214v192h135v-192h214v-127h-214v-192h-135v192zM36 127h563v-127h-563v127z" />
    <glyph glyph-name="approxequal" unicode="&#x2248;" horiz-adv-x="625" 
d="M359.5 357q-28.5 11 -64.5 31q-28 16 -47 24t-42 8q-31 0 -61 -19t-53 -54l-83 79q30 53 82.5 87.5t116.5 34.5q36 0 63.5 -10t62.5 -30q30 -17 51 -25.5t47 -8.5q29 0 56.5 19t50.5 51l78 -79q-29 -51 -78 -85t-112 -34q-39 0 -67.5 11zM359.5 116q-28.5 11 -64.5 31
q-28 16 -47 24t-42 8q-31 0 -61 -19t-53 -54l-83 79q30 53 82.5 87.5t116.5 34.5q36 0 63.5 -10t62.5 -30q30 -17 51 -25.5t47 -8.5q29 0 56.5 19t50.5 51l78 -79q-29 -51 -78 -85t-112 -34q-39 0 -67.5 11z" />
    <glyph glyph-name="asciitilde" unicode="~" horiz-adv-x="625" 
d="M364 333.5q-29 13.5 -64 38.5q-30 21 -48.5 30.5t-41.5 9.5q-37 0 -65.5 -22.5t-54.5 -62.5l-86 79q33 58 87 96t118 38q37 0 64.5 -13t63.5 -37q31 -22 52.5 -32t47.5 -10q49 0 107 82l78 -79q-31 -55 -79.5 -93t-110.5 -38q-39 0 -68 13.5z" />
    <glyph glyph-name="logicalnot" unicode="&#xac;" horiz-adv-x="625" 
d="M459 380h-428v127h563v-357h-135v230z" />
    <glyph glyph-name="infinity" unicode="&#x221e;" horiz-adv-x="819" 
d="M405 246q-94 -89 -199 -89q-51 0 -92.5 22t-65 62.5t-23.5 94.5q0 50 24.5 91.5t68 65.5t97.5 24q97 0 199 -91q88 83 196 83q53 0 95 -23.5t65.5 -65t23.5 -95.5q0 -48 -23 -88.5t-65 -64t-96 -23.5q-105 0 -205 97zM331 336q-53 64 -112 64q-28 0 -49 -15.5t-21 -44.5
q0 -31 20 -46.5t46 -15.5q61 0 116 58zM651.5 279q18.5 14 18.5 47q0 30 -18.5 45.5t-47.5 15.5q-54 0 -107 -59q22 -27 50 -45t58 -18q28 0 46.5 14z" />
    <glyph glyph-name="integral" unicode="&#x222b;" horiz-adv-x="645" 
d="M34 -186.5q-53 37.5 -53 104.5v5q0 20 7 27t25 7h128v-35q0 -28 6.5 -40t22.5 -12q12 0 18 7.5t9.5 31t3.5 71.5v611q0 105 61.5 157t156.5 52q85 0 138.5 -38.5t53.5 -106.5v-5q0 -12 -1 -17t-5 -9q-8 -8 -30 -8h-121v37q0 28 -7.5 40.5t-23.5 12.5q-21 0 -30 -20.5
t-9 -73.5v-596q0 -125 -58.5 -182.5t-159.5 -57.5q-79 0 -132 37.5z" />
    <glyph glyph-name="uni2126" unicode="&#x2126;" horiz-adv-x="786" 
d="M760 121v-121h-327v104q60 53 90 133.5t30 184.5q0 263 -158 263q-74 0 -118 -65.5t-44 -197.5q0 -112 28 -189t93 -129v-104h-328v121h149q-146 113 -146 306q0 110 47.5 194.5t131.5 131.5t189 47q106 0 187.5 -46.5t127 -131.5t45.5 -195q0 -93 -40.5 -170.5
t-113.5 -135.5h157z" />
    <glyph glyph-name="uni2206" unicode="&#x2206;" horiz-adv-x="772" 
d="M752 0h-732l282 788h178zM206 121h312l-154 471z" />
    <glyph glyph-name="product" unicode="&#x220f;" horiz-adv-x="827" 
d="M38 -29q9 9 27 14l19 6q16 5 22.5 12t8.5 20.5t2 44.5v600h-97v120h787v-120h-97v-601q0 -31 2 -44t8.5 -20t21.5 -12l15 -5q20 -7 31 -16l-5 -81h-341l-6 82q9 9 27 14l19 6q16 5 22.5 12t8.5 20.5t2 44.5v600h-203v-601q0 -31 2 -44t8.5 -20t21.5 -12l15 -5
q20 -7 31 -16l-5 -81h-341z" />
    <glyph glyph-name="summation" unicode="&#x2211;" horiz-adv-x="648" 
d="M46 2l233 338l-225 307v141h554v-225h-87q-10 22 -21 51l-14 39q-4 13 -10 16t-23 3h-185l209 -303l-239 -336h222q17 0 23 3.5t10 15.5l15 49q14 44 23 61h87v-273h-572v113z" />
    <glyph glyph-name="radical" unicode="&#x221a;" horiz-adv-x="664" 
d="M674 803l-275 -803h-163l-133 432q-7 23 -15 31.5t-23 13.5l-16 5q-18 6 -30 12l3 79h223l99 -353l208 615z" />
    <glyph glyph-name="partialdiff" unicode="&#x2202;" horiz-adv-x="657" 
d="M158 21q-63 33 -96.5 92t-33.5 137q0 93 39 165t103 111.5t138 39.5q70 0 125 -39q-37 141 -195 236l65 82q166 -82 246 -206.5t80 -282.5q0 -107 -37.5 -190.5t-110 -130.5t-174.5 -47q-86 0 -149 33zM373 127q25 34 37.5 86t12.5 106q0 68 -17.5 103.5t-55.5 35.5
t-64.5 -33.5t-39.5 -84.5t-13 -102q0 -145 79 -145q36 0 61 34z" />
    <glyph glyph-name="uni00B5" unicode="&#xb5;" horiz-adv-x="715" 
d="M707 64q-23 -35 -60 -55.5t-83 -20.5q-41 0 -71.5 15.5t-46.5 45.5q-43 -61 -111 -61q-39 0 -69 21v-221h-177v642q0 24 -5 33.5t-19 14.5l-13 4q-22 7 -28 12l3 79h245v-378q0 -40 19.5 -63.5t53.5 -23.5q39 0 60.5 30t21.5 85v207q0 24 -5 33.5t-19 14.5l-13 4
q-22 7 -28 12l3 79h245v-443q0 -27 20 -27q7 0 16.5 5t15.5 12z" />
    <glyph glyph-name="percent" unicode="%" horiz-adv-x="893" 
d="M123 30l544 787l96 -59l-544 -787zM98 459q-30 25 -46.5 63.5t-16.5 87.5q0 99 58 148q49 42 135 42t137 -45q55 -49 55 -143q0 -48 -16 -86t-44 -63q-26 -21 -61 -32t-74 -11q-79 0 -127 39zM272 527q8 14 10.5 33.5t2.5 50.5q0 34 -2.5 53.5t-10.5 32.5q-14 22 -41 22
q-30 0 -46 -25q-15 -25 -15 -82q0 -61 14 -86t46 -25q27 0 42 26zM536 27q-30 25 -46.5 63.5t-16.5 87.5q0 99 58 148q49 42 135 42t137 -45q55 -49 55 -143q0 -49 -15.5 -87.5t-44.5 -61.5q-26 -21 -61 -32t-74 -11q-79 0 -127 39zM710 95q8 14 10.5 33.5t2.5 50.5
q0 34 -2.5 53.5t-10.5 32.5q-14 22 -41 22q-30 0 -46 -25q-15 -25 -15 -82q0 -61 14 -86t46 -25q27 0 42 26z" />
    <glyph glyph-name="perthousand" unicode="&#x2030;" horiz-adv-x="1329" 
d="M123 30l544 787l96 -59l-544 -787zM98 459q-30 25 -46.5 63.5t-16.5 87.5q0 99 58 148q49 42 135 42t137 -45q55 -49 55 -143q0 -48 -16 -86t-44 -63q-26 -21 -61 -32t-74 -11q-79 0 -127 39zM272 527q8 14 10.5 33.5t2.5 50.5q0 34 -2.5 53.5t-10.5 32.5q-14 22 -41 22
q-30 0 -46 -25q-15 -25 -15 -82q0 -61 14 -86t46 -25q27 0 42 26zM536 27q-30 25 -46.5 63.5t-16.5 87.5q0 99 58 148q49 42 135 42t137 -45q55 -49 55 -143q0 -49 -15.5 -87.5t-44.5 -61.5q-26 -21 -61 -32t-74 -11q-79 0 -127 39zM972 27q-30 25 -46.5 63.5t-16.5 87.5
q0 99 58 148q49 42 135 42t137 -45q55 -49 55 -143q0 -49 -15.5 -87.5t-44.5 -61.5q-26 -21 -61 -32t-74 -11q-79 0 -127 39zM710 95q8 14 10.5 33.5t2.5 50.5q0 34 -2.5 53.5t-10.5 32.5q-14 22 -41 22q-30 0 -46 -25q-15 -25 -15 -82q0 -61 14 -86t46 -25q27 0 42 26z
M1146 95q8 14 10.5 33.5t2.5 50.5q0 34 -2.5 53.5t-10.5 32.5q-14 22 -41 22q-30 0 -46 -25q-15 -25 -15 -82q0 -61 14 -86t46 -25q27 0 42 26z" />
    <glyph glyph-name="arrowup" unicode="&#x2191;" horiz-adv-x="722" 
d="M299 612l-177 -182l-82 85l321 321l321 -321l-82 -85l-177 182v-672h-124v672z" />
    <glyph glyph-name="arrowright" unicode="&#x2192;" horiz-adv-x="961" 
d="M30 440h672l-182 177l85 82l321 -321l-321 -321l-85 82l182 177h-672v124z" />
    <glyph glyph-name="arrowdown" unicode="&#x2193;" horiz-adv-x="722" 
d="M40 261l82 85l177 -182v672h124v-672l177 182l82 -85l-321 -321z" />
    <glyph glyph-name="arrowleft" unicode="&#x2190;" horiz-adv-x="961" 
d="M30 378l321 321l85 -82l-182 -177h672v-124h-672l182 -177l-85 -82z" />
    <glyph glyph-name="lozenge" unicode="&#x25ca;" horiz-adv-x="673" 
d="M10 385l285 403h96l272 -403l-284 -406h-89zM509 374l-175 257l-168 -232l176 -259z" />
    <glyph glyph-name="uniF8FF" unicode="&#xf8ff;" horiz-adv-x="934" 
d="M192 -32.5q-11 9.5 -11 25.5q0 7 5 22l84 257l-219 159q-23 16 -23 37q0 17 11.5 26.5t29.5 9.5h276l84 259q12 33 38 33q16 0 24 -8.5t14 -24.5l84 -259h276q18 0 29.5 -9.5t11.5 -26.5q0 -21 -23 -37l-219 -159l84 -257q5 -15 5 -22q0 -16 -11 -25.5t-26 -9.5
q-14 0 -31 12l-218 159l-218 -159q-16 -12 -31 -12t-26 9.5zM467 178l244 -178l-93 287v1l242 176h-300l-93 287l-93 -287h-300l242 -176v-1l-93 -287z" />
    <glyph glyph-name="at" unicode="@" horiz-adv-x="950" 
d="M737 757.5q84 -42.5 126 -117.5t42 -174q0 -89 -28 -158t-80 -107.5t-120 -38.5q-40 0 -72.5 20.5t-43.5 57.5q-18 -36 -51 -56t-71 -20q-42 0 -77 21t-56 62.5t-21 98.5q0 70 26 124t68.5 84t88.5 30q72 0 99 -54l8 46h106l-19 -243q-2 -22 -2 -29q0 -19 5.5 -28
t19.5 -9q27 0 46 49t19 143q0 116 -58.5 176.5t-159.5 60.5q-86 0 -160 -47.5t-118 -133.5t-44 -197q0 -90 30 -154t80.5 -96t112.5 -32q96 0 174 66l53 -82q-45 -40 -115 -65t-135 -25q-103 0 -184.5 41.5t-128.5 127t-47 212.5q0 132 63.5 244t174 178.5t244.5 66.5
q121 0 205 -42.5zM518.5 307q19.5 38 19.5 96q0 82 -43 82q-29 0 -49.5 -36t-20.5 -94q0 -42 12 -64t33 -22q29 0 48.5 38z" />
    <glyph glyph-name="ampersand" unicode="&#x26;" horiz-adv-x="851" 
d="M171 17q-63 29 -97 83t-34 126q0 73 44.5 131t116.5 98q-35 43 -53 80.5t-18 83.5q0 55 31.5 96t86 63t120.5 22q63 0 110 -20t72 -55t25 -78q0 -51 -36.5 -94t-107.5 -83l148 -190q7 11 16 29q11 25 11 40q0 18 -15 24l-16 6q-22 8 -29 14l4 62h249l7 -72q-6 -5 -31 -13
l-15 -5q-15 -5 -26.5 -19t-27.5 -49q-15 -33 -57 -105l37 -44q15 -18 32 -29t43 -22l10 -4l27 -12l-4 -81h-233q-16 16 -48 56q-85 -68 -195 -68q-84 0 -147 29zM405 600.5q13 21.5 13 47.5q0 22 -13 37.5t-33 15.5q-24 0 -39 -16.5t-15 -39.5q0 -37 44 -90q30 24 43 45.5z
M451 135l-170 216q-36 -51 -36 -115q0 -63 32 -97.5t83 -34.5q49 0 91 31z" />
    <glyph glyph-name="paragraph" unicode="&#xb6;" horiz-adv-x="738" 
d="M208 -85q7 3 37 11l25 6q16 4 24.5 18.5t8.5 44.5v308h-15q-73 0 -127 33t-82.5 88.5t-28.5 121.5q0 64 29 119.5t85.5 89t133.5 33.5h358v-960h-128v855h-97v-855h-222z" />
    <glyph glyph-name="section" unicode="&#xa7;" horiz-adv-x="632" 
d="M45 77h125l6 -33q10 -59 45 -88t92 -29q38 0 59 16.5t21 45.5q0 31 -26 52.5t-99 50.5l-45 18q-91 36 -134.5 80.5t-43.5 115.5q0 49 25 88t66 65q-74 59 -74 151q0 55 29 98.5t80 67.5t113 24q73 0 120 -31q4 -3 8 -3q6 0 9 11l4 18h108v-206h-125l-1 25q-1 35 -27 56
t-65 21q-35 0 -57 -17t-22 -42q0 -29 24.5 -49.5t87.5 -42.5l45 -16q70 -25 111 -51t60.5 -60.5t19.5 -84.5q0 -105 -87 -162q41 -31 57.5 -67t16.5 -83q0 -52 -28.5 -98t-79 -73.5t-113.5 -27.5q-107 0 -171 55q-3 3 -7 3q-5 0 -6 -7l-4 -28h-117v237zM416 272
q0 35 -26 59.5t-90 48.5l-70 26q-16 -24 -16 -52q0 -30 20.5 -53t73.5 -44q80 -31 94 -38q14 22 14 53z" />
    <glyph glyph-name="copyright" unicode="&#xa9;" horiz-adv-x="900" 
d="M243.5 40.5q-95.5 52.5 -152 145.5t-56.5 208t56.5 207.5t152 145.5t206.5 53t206.5 -53t152 -145.5t56.5 -207.5t-56.5 -208t-152 -145.5t-206.5 -52.5t-206.5 52.5zM607.5 110.5q72.5 41.5 115.5 116t43 167.5q0 94 -43 168t-115.5 115.5t-157.5 41.5
q-84 0 -156.5 -41.5t-115.5 -115.5t-43 -168q0 -93 43 -167.5t115.5 -116t156.5 -41.5q85 0 157.5 41.5zM339.5 179.5q-54.5 28.5 -86 84t-31.5 131.5q0 72 30 127.5t84 86t124 30.5q59 0 104 -20t69.5 -55t24.5 -78v-7q0 -21 -6 -28t-21 -7h-120v29q0 83 -54 83
q-39 0 -64.5 -38t-25.5 -121q0 -74 32.5 -112.5t88.5 -38.5q39 0 70 19t58 54l58 -57q-34 -52 -88 -81.5t-123 -29.5t-123.5 28.5z" />
    <glyph glyph-name="registered" unicode="&#xae;" horiz-adv-x="689" 
d="M193 266.5q-68 37.5 -107 103.5t-39 149q0 81 39 147.5t107 104.5t151 38t151 -38t107.5 -104.5t39.5 -147.5q0 -83 -39.5 -149t-107.5 -103.5t-151 -37.5t-151 37.5zM455 328.5q47 27.5 72.5 77t25.5 113.5t-25.5 113t-72.5 77t-111 28t-111 -28t-72 -77t-25 -113
q0 -97 56 -157.5t152 -60.5q64 0 111 27.5zM233 675h123q60 0 91 -22.5t31 -65.5q0 -64 -51 -85q-9 -3 -6 -11l14 -37q6 -14 10.5 -20.5t10.5 -10.5l8 -4q8 -4 15 -8l-4 -38h-98l-37 113q-1 4 -6 4h-3q-5 0 -5 -6v-111h-93v302zM340 543q44 0 44 42q0 17 -10.5 27t-30.5 10
h-10q-5 0 -7.5 -3t-2.5 -6v-62q0 -5 1 -6.5t6 -1.5h10z" />
    <glyph glyph-name="trademark" unicode="&#x2122;" horiz-adv-x="1086" 
d="M128 481q1 0 2 1.5t12 4.5l10 3q21 6 21 35v187q0 7 -8 7h-45q-15 0 -18 -12l-5 -26q-4 -18 -12 -35h-60v142h420v-143h-60q-9 22 -11 33l-6 29q-2 6 -5.5 9t-12.5 3h-43q-8 0 -8 -7v-188q0 -29 18 -34l11 -3q3 -1 7 -2.5t9 -4.5l-5 -51h-206zM487 481q1 0 3.5 1.5
t13.5 5.5l10 3q11 3 14 9t3 24v163q0 36 -18 40l-9 2q-2 1 -7 2.5t-10 4.5l3 52h207l75 -145l76 145h205l3 -52q-6 -3 -16 -6l-12 -3q-10 -2 -13.5 -9t-3.5 -25v-168q0 -18 3.5 -24t13.5 -9l9 -3q14 -5 19 -8l-3 -52h-211l-4 53q6 4 18 7l10 3q10 3 13.5 9t3.5 24v141
l-82 -154h-90l-82 158v-146q0 -17 3.5 -23t13.5 -10l8 -3l19 -8l-2 -51h-181z" />
    <glyph glyph-name="degree" unicode="&#xb0;" horiz-adv-x="343" 
d="M93.5 614q-36.5 20 -57.5 55t-21 76q0 42 21 77t57.5 55.5t78.5 20.5t78 -20.5t57 -55t21 -75.5q0 -42 -21 -77t-57 -55.5t-78 -20.5t-78.5 20zM207.5 710q14.5 15 14.5 35q0 22 -14.5 37t-35.5 15q-22 0 -36.5 -14.5t-14.5 -35.5q0 -22 14.5 -37t36.5 -15q21 0 35.5 15z
" />
    <glyph glyph-name="bar" unicode="|" horiz-adv-x="456" 
d="M155 869h146v-1081h-146v1081z" />
    <glyph glyph-name="brokenbar" unicode="&#xa6;" horiz-adv-x="456" 
d="M155 869h146v-401h-146v401zM155 189h146v-401h-146v401z" />
    <glyph glyph-name="uni2113" unicode="&#x2113;" horiz-adv-x="366" 
d="M17 79q10 5 31 12l15 5q19 7 25 16t6 31v502q0 24 -6.5 32.5t-25.5 14.5l-15 5q-24 8 -29 12l3 79h256v-645q0 -21 6.5 -31t24.5 -16l15 -5q21 -7 31 -12l-3 -79h-331z" />
    <glyph glyph-name="dagger" unicode="&#x2020;" horiz-adv-x="602" 
d="M220 326l22 99l-192 -14v135l192 -13l-21 97l14 93h129l13 -93l-19 -97l194 13v-135l-194 14l20 -100l-25 -238h-107z" />
    <glyph glyph-name="daggerdbl" unicode="&#x2021;" horiz-adv-x="602" 
d="M221 91l21 89l-192 -16v136l202 -16l-28 76l18 73l-192 -14v135l192 -13l-21 89l14 93h129l13 -93l-19 -89l194 13v-135l-194 14l17 -74l-26 -75l203 16v-136l-194 16l19 -89l-13 -93h-129z" />
    <glyph glyph-name="uni2116" unicode="&#x2116;" horiz-adv-x="1256" 
d="M38 82q9 9 27 14l19 6q16 5 22.5 12t8.5 20.5t2 44.5v432q0 31 -1.5 44t-8.5 19.5t-24 12.5l-20 7q-15 5 -24 14l5 80h252l280 -470v291q0 31 -2 44.5t-8.5 20.5t-21.5 12l-15 5q-20 7 -31 16l5 81h278l6 -82q-9 -9 -27 -14l-19 -6q-16 -5 -22.5 -12t-8.5 -20.5t-2 -44.5
v-609h-153l-306 508v-329q0 -31 2 -44.5t8.5 -20.5t21.5 -12l15 -5q20 -7 31 -16l-5 -81h-278zM936 446q-44 23 -69 66t-25 100q0 56 25.5 99t70 66t100.5 23q87 0 140 -51t53 -137q0 -57 -25 -100t-69.5 -66t-100.5 -23t-100 23zM1084 525.5q14 26.5 14 86.5
q0 57 -14.5 84.5t-44.5 27.5q-32 0 -47.5 -27t-15.5 -85q0 -60 15 -86.5t48 -26.5q31 0 45 26.5zM851 376h371v-83h-371v83z" />
    <glyph glyph-name="estimated" unicode="&#x212e;" horiz-adv-x="960" 
d="M287.5 31.5q-88.5 47.5 -140 128.5t-51.5 176t51.5 176t140 128.5t192.5 47.5t192.5 -47.5t140 -128.5t51.5 -176q0 -11 -1 -16h-623v-196q44 -51 106.5 -79.5t133.5 -28.5q72 0 135 29.5t108 82.5h66q-54 -67 -135 -105.5t-174 -38.5q-104 0 -192.5 47.5zM720 352v196
q-45 51 -107.5 79.5t-132.5 28.5q-71 0 -133.5 -28.5t-106.5 -79.5v-196h480z" />
    <glyph glyph-name="asciicircum" unicode="^" horiz-adv-x="625" 
d="M472 327l-159 299l-159 -299l-113 57l212 404h123l208 -404z" />
    <glyph glyph-name="uni0308" unicode="&#x308;" 
d="M-373.5 664.5q-25.5 25.5 -25.5 60.5t25.5 60.5t60.5 25.5t60.5 -25.5t25.5 -60.5t-25.5 -60.5t-60.5 -25.5t-60.5 25.5zM-147.5 664.5q-25.5 25.5 -25.5 60.5t25.5 60.5t60.5 25.5t60.5 -25.5t25.5 -60.5t-25.5 -60.5t-60.5 -25.5t-60.5 25.5z" />
    <glyph glyph-name="uni0307" unicode="&#x307;" 
d="M-270 663.5q-29 29.5 -29 70.5q0 42 29 70.5t70 28.5q40 0 69.5 -29t29.5 -70t-29.5 -70.5t-69.5 -29.5q-41 0 -70 29.5z" />
    <glyph glyph-name="gravecomb" unicode="&#x300;" 
d="M-343 759l100 114l201 -168l-66 -86z" />
    <glyph glyph-name="acutecomb" unicode="&#x301;" 
d="M-329 705l201 168l100 -114l-235 -140z" />
    <glyph glyph-name="uni030B" unicode="&#x30b;" 
d="M-456 676l167 194l113 -83l-198 -185zM-199 676l167 194l113 -83l-198 -185z" />
    <glyph glyph-name="uni0302" unicode="&#x302;" 
d="M-397 691l143 143h109l142 -143l-73 -73l-123 105l-123 -105z" />
    <glyph glyph-name="uni030C" unicode="&#x30c;" 
d="M-398 775l75 73l123 -101l123 101l75 -73l-144 -139h-109z" />
    <glyph glyph-name="uni0306" unicode="&#x306;" 
d="M-291 642.5q-42 20.5 -68 60.5t-28 96h123q2 -32 19 -49.5t45 -17.5t45.5 17.5t19.5 49.5h121q-2 -56 -28.5 -96t-68.5 -60.5t-90 -20.5t-90 20.5z" />
    <glyph glyph-name="uni030A" unicode="&#x30a;" 
d="M-293.5 644.5q-37.5 27.5 -37.5 79.5q0 50 37.5 79t94.5 29q54 0 92 -28t38 -79t-37 -79.5t-95 -28.5q-55 0 -92.5 27.5zM-171 694.5q11 11.5 11 30.5q0 20 -11.5 31t-29.5 11q-17 0 -28 -11.5t-11 -30.5t12 -30.5t29 -11.5t28 11.5z" />
    <glyph glyph-name="tildecomb" unicode="&#x303;" 
d="M-417 685q16 57 53.5 90.5t87.5 33.5q25 0 46.5 -8.5t46.5 -24.5q20 -12 34 -18t27 -6q21 0 36 16t24 43l79 -57q-14 -54 -49.5 -89.5t-84.5 -35.5q-29 0 -50.5 9t-46.5 25q-18 11 -30 16.5t-25 5.5q-22 0 -39 -15.5t-27 -42.5z" />
    <glyph glyph-name="uni0304" unicode="&#x304;" 
d="M-395 762h390v-117h-390v117z" />
    <glyph glyph-name="uni0315" unicode="&#x315;" 
d="M-277 573q53 45 53 78q0 13 -15 30q-11 13 -17 25t-6 30q0 28 22 46t53 18q39 0 63.5 -26t24.5 -71q0 -44 -28 -94.5t-78 -89.5z" />
    <glyph glyph-name="uni0326" unicode="&#x326;" 
d="M-294 -303q26 19 42 39.5t16 38.5q0 7 -4 13t-12 13q-13 12 -20 23t-7 31q0 31 23 51t60 20q42 0 69.5 -30t27.5 -78q0 -42 -31.5 -92.5t-84.5 -85.5z" />
    <glyph glyph-name="uni0327" unicode="&#x327;" 
d="M-274 -217.5q-35 9.5 -58 24.5l28 76q39 -26 73 -26q16 0 25 7.5t9 21.5q0 36 -73 46l32 70h85l-12 -27q47 -11 74.5 -38.5t27.5 -66.5q0 -41 -35 -69t-101 -28q-40 0 -75 9.5z" />
    <glyph glyph-name="uni0328" unicode="&#x328;" 
d="M-292 -191.5q-36 25.5 -36 74.5q0 35 26.5 69.5t64.5 52.5h113q-30 -18 -46.5 -43t-16.5 -50q0 -15 8.5 -24t22.5 -9q30 0 63 33l49 -68q-26 -28 -64 -44.5t-84 -16.5q-64 0 -100 25.5z" />
    <glyph glyph-name="uni0308.case" 
d="M-374.5 871.5q-25.5 23.5 -25.5 59.5t25.5 59.5t62.5 23.5t62 -23.5t25 -59.5t-25 -59.5t-62 -23.5t-62.5 23.5zM-149.5 871.5q-25.5 23.5 -25.5 59.5t25.5 59.5t62.5 23.5t62 -23.5t25 -59.5t-25 -59.5t-62 -23.5t-62.5 23.5z" />
    <glyph glyph-name="uni0307.case" 
d="M-271.5 878q-27.5 27 -27.5 69t27.5 68.5t72.5 26.5q42 0 70 -26.5t28 -68.5q0 -41 -28 -68.5t-70 -27.5q-45 0 -72.5 27z" />
    <glyph glyph-name="gravecomb.case" 
d="M-352 930l72 137l243 -141l-50 -96z" />
    <glyph glyph-name="acutecomb.case" 
d="M-337 926l243 141l72 -137l-265 -100z" />
    <glyph glyph-name="uni030B.case" 
d="M-423 911l179 160l94 -104l-200 -143zM-156 911l179 160l94 -104l-200 -143z" />
    <glyph glyph-name="uni0302.case" 
d="M-398 902l131 133h136l130 -132l-66 -74l-133 100l-132 -100z" />
    <glyph glyph-name="uni030C.case" 
d="M-399 973l66 74l133 -95l132 95l66 -73l-131 -128h-136z" />
    <glyph glyph-name="uni0306.case" 
d="M-336 897.5q-49 47.5 -54 120.5h125q7 -28 24 -42t42 -14q51 0 64 56h125q-5 -72 -54.5 -120t-135.5 -48q-87 0 -136 47.5z" />
    <glyph glyph-name="uni030A.case" 
d="M-297.5 860q-35.5 28 -35.5 75q0 48 36 76t98 28q60 0 96.5 -28.5t36.5 -74.5q0 -48 -36.5 -76t-98.5 -28q-61 0 -96.5 28zM-171.5 909.5q11.5 10.5 11.5 26.5q0 17 -11.5 27t-28.5 10t-28 -10t-11 -27q0 -16 11.5 -26.5t28.5 -10.5q16 0 27.5 10.5z" />
    <glyph glyph-name="tildecomb.case" 
d="M-418 893q21 57 61 89.5t90 32.5q24 0 43 -7.5t41 -20.5q20 -11 32.5 -16t26.5 -5q18 0 30 12.5t21 38.5l92 -54q-12 -49 -49 -87.5t-87 -38.5q-27 0 -45 7t-42 20q-19 11 -31.5 16t-27.5 5q-23 0 -36.5 -12.5t-23.5 -36.5z" />
    <glyph glyph-name="uni0304.case" 
d="M-395 992h390v-122h-390v122z" />
    <glyph glyph-name="acutecomb.loclPLK" 
d="M-278 688l140 202l122 -90l-175 -177z" />
    <glyph glyph-name="acutecomb.case.loclPLK" 
d="M-249 887l126 218l132 -87l-163 -189z" />
    <glyph glyph-name="uni0308.narrow" 
d="M-359 662.5q-24 23.5 -24 62.5q0 37 24 61.5t58 24.5t57.5 -24.5t23.5 -61.5q0 -39 -23.5 -62.5t-57.5 -23.5t-58 23.5zM-156 662.5q-24 23.5 -24 62.5q0 37 24 61.5t58 24.5q33 0 57 -24.5t24 -61.5q0 -38 -24 -62t-57 -24q-34 0 -58 23.5z" />
    <glyph glyph-name="gravecomb.narrow" 
d="M-332 764l108 109l168 -192l-84 -70z" />
    <glyph glyph-name="acutecomb.narrow" 
d="M-311 681l168 192l108 -109l-192 -153z" />
    <glyph glyph-name="uni0302.narrow" 
d="M-380 680l120 153h119l121 -154l-83 -60l-97 106l-97 -106z" />
    <glyph glyph-name="uni030C.narrow" 
d="M-380 784l83 60l97 -106l97 106l83 -61l-120 -153h-119z" />
    <glyph glyph-name="uni0306.narrow" 
d="M-320 675q-46 45 -46 132h113q-1 -32 13 -49.5t41 -17.5q53 0 53 67h111q0 -87 -45.5 -132t-119.5 -45t-120 45z" />
    <glyph glyph-name="tildecomb.narrow" 
d="M-393 668q10 61 43.5 101t78.5 40q24 0 44 -8.5t46 -25.5q17 -11 28 -16.5t21 -5.5q15 0 24.5 13t15.5 38l86 -30q-9 -56 -40.5 -100.5t-71.5 -44.5q-23 0 -42 8t-44 22q-20 11 -32 16t-23 5q-39 0 -50 -48z" />
    <glyph glyph-name="uni0304.narrow" 
d="M-358 762h316v-117h-316v117z" />
    <glyph glyph-name="uni0328.narrow" 
d="M-272.5 -190q-33.5 27 -33.5 76q0 34 22 66t57 53h113q-51 -43 -51 -93q0 -15 7 -24t21 -9t24.5 6.5t24.5 20.5l49 -68q-31 -28 -63.5 -41.5t-75.5 -13.5q-61 0 -94.5 27z" />
    <glyph glyph-name="acute" unicode="&#xb4;" horiz-adv-x="400" 
d="M71 705l201 168l100 -114l-235 -140z" />
    <glyph glyph-name="breve" unicode="&#x2d8;" horiz-adv-x="400" 
d="M109 642.5q-42 20.5 -68 60.5t-28 96h123q2 -32 19 -49.5t45 -17.5t45.5 17.5t19.5 49.5h121q-2 -56 -28.5 -96t-68.5 -60.5t-90 -20.5t-90 20.5z" />
    <glyph glyph-name="caron" unicode="&#x2c7;" horiz-adv-x="400" 
d="M2 775l75 73l123 -101l123 101l75 -73l-144 -139h-109z" />
    <glyph glyph-name="cedilla" unicode="&#xb8;" horiz-adv-x="400" 
d="M126 -217.5q-35 9.5 -58 24.5l28 76q39 -26 73 -26q16 0 25 7.5t9 21.5q0 36 -73 46l32 70h85l-12 -27q47 -11 74.5 -38.5t27.5 -66.5q0 -41 -35 -69t-101 -28q-40 0 -75 9.5z" />
    <glyph glyph-name="circumflex" unicode="&#x2c6;" horiz-adv-x="400" 
d="M3 691l143 143h109l142 -143l-73 -73l-123 105l-123 -105z" />
    <glyph glyph-name="dieresis" unicode="&#xa8;" horiz-adv-x="400" 
d="M26.5 664.5q-25.5 25.5 -25.5 60.5t25.5 60.5t60.5 25.5t60.5 -25.5t25.5 -60.5t-25.5 -60.5t-60.5 -25.5t-60.5 25.5zM252.5 664.5q-25.5 25.5 -25.5 60.5t25.5 60.5t60.5 25.5t60.5 -25.5t25.5 -60.5t-25.5 -60.5t-60.5 -25.5t-60.5 25.5z" />
    <glyph glyph-name="dotaccent" unicode="&#x2d9;" horiz-adv-x="400" 
d="M130 663.5q-29 29.5 -29 70.5q0 42 29 70.5t70 28.5q40 0 69.5 -29t29.5 -70t-29.5 -70.5t-69.5 -29.5q-41 0 -70 29.5z" />
    <glyph glyph-name="grave" unicode="`" horiz-adv-x="400" 
d="M57 759l100 114l201 -168l-66 -86z" />
    <glyph glyph-name="hungarumlaut" unicode="&#x2dd;" horiz-adv-x="400" 
d="M-56 676l167 194l113 -83l-198 -185zM201 676l167 194l113 -83l-198 -185z" />
    <glyph glyph-name="macron" unicode="&#xaf;" horiz-adv-x="400" 
d="M5 762h390v-117h-390v117z" />
    <glyph glyph-name="ogonek" unicode="&#x2db;" horiz-adv-x="400" 
d="M108 -191.5q-36 25.5 -36 74.5q0 35 26.5 69.5t64.5 52.5h113q-30 -18 -46.5 -43t-16.5 -50q0 -15 8.5 -24t22.5 -9q30 0 63 33l49 -68q-26 -28 -64 -44.5t-84 -16.5q-64 0 -100 25.5z" />
    <glyph glyph-name="ring" unicode="&#x2da;" horiz-adv-x="400" 
d="M106.5 644.5q-37.5 27.5 -37.5 79.5q0 50 37.5 79t94.5 29q54 0 92 -28t38 -79t-37 -79.5t-95 -28.5q-55 0 -92.5 27.5zM229 694.5q11 11.5 11 30.5q0 20 -11.5 31t-29.5 11q-17 0 -28 -11.5t-11 -30.5t12 -30.5t29 -11.5t28 11.5z" />
    <glyph glyph-name="tilde" unicode="&#x2dc;" horiz-adv-x="400" 
d="M-17 685q16 57 53.5 90.5t87.5 33.5q25 0 46.5 -8.5t46.5 -24.5q20 -12 34 -18t27 -6q21 0 36 16t24 43l79 -57q-14 -54 -49.5 -89.5t-84.5 -35.5q-29 0 -50.5 9t-46.5 25q-18 11 -30 16.5t-25 5.5q-22 0 -39 -15.5t-27 -42.5z" />
    <glyph glyph-name="acute.case" horiz-adv-x="400" 
d="M63 926l243 141l72 -137l-265 -100z" />
    <glyph glyph-name="breve.case" horiz-adv-x="400" 
d="M64 897.5q-49 47.5 -54 120.5h125q7 -28 24 -42t42 -14q51 0 64 56h125q-5 -72 -54.5 -120t-135.5 -48q-87 0 -136 47.5z" />
    <glyph glyph-name="caron.case" horiz-adv-x="400" 
d="M1 973l66 74l133 -95l132 95l66 -73l-131 -128h-136z" />
    <glyph glyph-name="circumflex.case" horiz-adv-x="400" 
d="M2 902l131 133h136l130 -132l-66 -74l-133 100l-132 -100z" />
    <glyph glyph-name="dieresis.case" horiz-adv-x="400" 
d="M25.5 871.5q-25.5 23.5 -25.5 59.5t25.5 59.5t62.5 23.5t62 -23.5t25 -59.5t-25 -59.5t-62 -23.5t-62.5 23.5zM250.5 871.5q-25.5 23.5 -25.5 59.5t25.5 59.5t62.5 23.5t62 -23.5t25 -59.5t-25 -59.5t-62 -23.5t-62.5 23.5z" />
    <glyph glyph-name="dotaccent.case" horiz-adv-x="400" 
d="M128.5 878q-27.5 27 -27.5 69t27.5 68.5t72.5 26.5q42 0 70 -26.5t28 -68.5q0 -41 -28 -68.5t-70 -27.5q-45 0 -72.5 27z" />
    <glyph glyph-name="grave.case" horiz-adv-x="400" 
d="M48 930l72 137l243 -141l-50 -96z" />
    <glyph glyph-name="hungarumlaut.case" horiz-adv-x="400" 
d="M-23 911l179 160l94 -104l-200 -143zM244 911l179 160l94 -104l-200 -143z" />
    <glyph glyph-name="macron.case" horiz-adv-x="400" 
d="M5 992h390v-122h-390v122z" />
    <glyph glyph-name="ring.case" horiz-adv-x="400" 
d="M102.5 860q-35.5 28 -35.5 75q0 48 36 76t98 28q60 0 96.5 -28.5t36.5 -74.5q0 -48 -36.5 -76t-98.5 -28q-61 0 -96.5 28zM228.5 909.5q11.5 10.5 11.5 26.5q0 17 -11.5 27t-28.5 10t-28 -10t-11 -27q0 -16 11.5 -26.5t28.5 -10.5q16 0 27.5 10.5z" />
    <glyph glyph-name="tilde.case" horiz-adv-x="400" 
d="M-18 893q21 57 61 89.5t90 32.5q24 0 43 -7.5t41 -20.5q20 -11 32.5 -16t26.5 -5q18 0 30 12.5t21 38.5l92 -54q-12 -49 -49 -87.5t-87 -38.5q-27 0 -45 7t-42 20q-19 11 -31.5 16t-27.5 5q-23 0 -36.5 -12.5t-23.5 -36.5z" />
	g2="four"
	k="10" />
  </font>
</defs>
</svg>
